<?xml version="1.0" standalone="no"?>
<!DOCTYPE svg PUBLIC "-//W3C//DTD SVG 1.1//EN" "http://www.w3.org/Graphics/SVG/1.1/DTD/svg11.dtd" >
<svg xmlns="http://www.w3.org/2000/svg">
<metadata>
This is a custom SVG webfont generated by Font Squirrel.
Copyright   : Copyright c 20102011 by tyPoland Lukasz Dziedzic with Reserved Font Name Lato Licensed under the SIL Open Font License Version 11 
Designer    : Lukasz Dziedzic
Foundry     : Lukasz Dziedzic
Foundry URL : httpwwwtypolandcom
</metadata>
<defs>
<font id="LatoHairline" horiz-adv-x="1187" >
<font-face units-per-em="2048" ascent="1649" descent="-399" />
<missing-glyph horiz-adv-x="395" />
<glyph unicode="&#xfb01;" horiz-adv-x="1026" d="M35 952v9h180v112q0 93 26 165.5t73 121t113 73.5t144 25q30 0 62 -5.5t53 -16.5l-2 -9q-1 -5 -7 -5q-9 0 -33 8t-73 8q-73 0 -133 -22t-104.5 -67t-69 -114t-24.5 -162v-112h571v-961h-25v940h-546v-940h-25v940l-168 4q-12 0 -12 8z" />
<glyph unicode="&#xfb02;" horiz-adv-x="1110" d="M35 952v9h180v77q0 93 26.5 170.5t77 132.5t123 85t164.5 30q68 0 134 -7t120 -7h12v-1442h-24v1425q-52 1 -117 6t-125 5q-87 0 -155 -28.5t-115 -80t-71.5 -125.5t-24.5 -164v-77h317v-21h-317v-940h-25v940l-168 4q-12 0 -12 8z" />
<glyph unicode="&#xd;" horiz-adv-x="0" />
<glyph horiz-adv-x="0" />
<glyph horiz-adv-x="0" />
<glyph unicode=" "  horiz-adv-x="395" />
<glyph unicode="&#x09;" horiz-adv-x="395" />
<glyph unicode="&#xa0;" horiz-adv-x="395" />
<glyph unicode="!" horiz-adv-x="624" d="M246 49q0 28 19 48t46 20q28 0 48 -20t20 -48t-20 -46.5t-48 -18.5t-46.5 18.5t-18.5 46.5zM301 848v586h29v-586q0 -45 -0.5 -84.5t-1 -80.5t-2 -88t-2.5 -108h-17q-2 60 -3 107.5t-1.5 88.5t-1 80.5t-0.5 84.5z" />
<glyph unicode="&#x22;" horiz-adv-x="698" d="M209 1133v301h20v-301l-2 -156q0 -8 -8 -8t-8 8zM469 1133v301h20v-301l-2 -156q0 -8 -8 -8t-8 8z" />
<glyph unicode="#" d="M111 483v6h236l100 455h-279v6q0 12 14 13h268l101 454q3 16 18 17h9l-106 -471h350l106 471h10q10 0 10 -10q0 -4 -5 -24l-98 -437h240v-7q0 -12 -14 -12h-228l-101 -455h272q14 0 14 -12v-6h-288l-105 -471h-6q-13 0 -14 8q0 5 5 22l98 441h-350l-102 -455 q-3 -16 -16 -16h-10l105 471h-220q-14 0 -14 12zM370 489h350l100 455h-350z" />
<glyph unicode="$" d="M197 170l4 4q3 3 5 4.5t7 1.5q6 0 18 -12.5t32 -32t48.5 -42.5t69 -42.5t92.5 -33t120 -13.5l27 744q-68 22 -131.5 47t-113 64.5t-79.5 97t-30 143.5q0 68 25 130t73.5 110t118.5 77t161 31l7 192q0 16 13 17h10l-8 -209q100 -2 177.5 -36t145.5 -105l-4 -7 q-3 -6 -10 -6q-10 0 -28.5 20t-54 44.5t-90 45.5t-136.5 23l-24 -662q73 -24 143.5 -50t126.5 -65t90 -97.5t34 -149.5q0 -86 -28 -160.5t-82.5 -131t-132.5 -90t-179 -36.5l-8 -249q0 -16 -12 -17h-10l9 265q-72 0 -128.5 12.5t-104.5 36.5t-87 58.5t-76 78.5zM289 1100 q0 -77 27.5 -130.5t73.5 -90t106 -61t125 -46.5l23 654q-86 -2 -152 -29t-111.5 -72t-68.5 -103.5t-23 -121.5zM615 4q94 3 168.5 36t126 86.5t78 124t26.5 148.5q0 84 -32.5 140t-84.5 93.5t-119 62t-137 46.5z" />
<glyph unicode="%" horiz-adv-x="1536" d="M102 1090q0 93 22.5 160.5t61.5 112t91.5 66t111.5 21.5q58 0 110.5 -21.5t91.5 -66t62 -112t23 -160.5q0 -92 -23 -160t-62 -112t-91.5 -65.5t-110.5 -21.5q-59 0 -111.5 21.5t-91.5 65.5t-61.5 112t-22.5 160zM125 1090q0 -89 21 -154t57.5 -106.5t84 -60.5t101.5 -19 q53 0 101.5 19t84.5 60.5t57 106t21 154.5q0 89 -21 153.5t-57 106.5t-84.5 62t-101.5 20q-54 0 -101.5 -20t-84 -62t-57.5 -106.5t-21 -153.5zM242 0l1011 1425q5 8 17 9h14l-1012 -1426q-5 -8 -16 -8h-14zM860 342q0 93 22.5 160.5t61.5 112t91 66t112 21.5 q58 0 110.5 -21.5t91.5 -66t62 -112t23 -160.5q0 -92 -23 -159.5t-62 -111.5t-91.5 -65.5t-110.5 -21.5q-59 0 -111.5 21.5t-91.5 65.5t-61.5 111.5t-22.5 159.5zM883 342q0 -89 21 -153.5t57 -106t84 -61t102 -19.5q53 0 101 19.5t84.5 61t57.5 106t21 153.5t-21 153.5 t-57.5 106.5t-84.5 62t-101 20q-54 0 -102 -20t-84 -62t-57 -106.5t-21 -153.5z" />
<glyph unicode="&#x26;" horiz-adv-x="1394" d="M129 352q0 77 28.5 146.5t79.5 127t118.5 101t146.5 69.5q-42 44 -74 84.5t-53.5 80.5t-32 83t-10.5 93q0 69 25 126t70.5 98.5t108 65t138.5 23.5q59 0 115 -22t99.5 -59t70 -86t26.5 -103h-6q-5 0 -9.5 3.5t-6.5 12.5q-2 28 -20.5 68t-54 76.5t-89.5 63t-125 26.5 q-70 0 -128.5 -22t-100.5 -60t-65.5 -92t-23.5 -119q0 -95 51 -183t152 -184l488 -467q52 78 81.5 161t38.5 157q2 8 4.5 12t10.5 4h8q-3 -77 -35 -168.5t-92 -180.5l301 -288h-16q-9 0 -15.5 1t-15.5 9l-267 259q-42 -58 -96.5 -109.5t-120.5 -91t-143 -62t-164 -22.5 q-73 0 -144 24t-127 70.5t-91 115t-35 158.5zM154 352q0 -89 35 -154.5t90 -108.5t121 -64t126 -21q86 0 161 22t139 60t116 89t92 109l-517 496q-78 -25 -144.5 -67.5t-115 -98.5t-76 -122.5t-27.5 -139.5z" />
<glyph unicode="'" horiz-adv-x="438" d="M209 1133v301h20v-301l-2 -156q0 -8 -8 -8t-8 8z" />
<glyph unicode="(" horiz-adv-x="614" d="M205 647q0 115 14 223.5t47 216.5t87.5 219.5t133.5 233.5l11 -6q4 -2 4 -7q0 -4 -4 -9q-135 -203 -203 -418t-68 -453q0 -239 67.5 -453t203.5 -417q4 -5 4 -9t-4 -8l-11 -6q-80 122 -134 233.5t-87 219.5t-47 216t-14 224z" />
<glyph unicode=")" horiz-adv-x="614" d="M111 -232q0 4 4 9q135 203 202.5 417.5t67.5 452.5t-67.5 453t-202.5 418q-4 5 -4 9q0 5 4 7l10 6q80 -122 134 -233.5t87 -219.5t47.5 -216.5t14.5 -223.5q0 -116 -14.5 -224t-47.5 -216t-87 -219.5t-134 -233.5l-10 6q-4 4 -4 8z" />
<glyph unicode="*" horiz-adv-x="819" d="M150 1370l10 19l209 -121q5 -3 8.5 -5.5t6.5 -6.5l8 -7l12 -12q-4 18 -5.5 26.5t-1.5 20.5v234h21v-234q0 -12 -0.5 -20.5t-5.5 -26.5l19.5 19.5t17.5 11.5l206 121l11 -19l-207 -121q-10 -6 -18 -9.5t-23 -7.5q17 -5 24 -7.5t17 -7.5l209 -121l-11 -19l-208 121 q-5 3 -9 5t-7.5 4.5t-8.5 7t-12 12.5q3 -18 4.5 -26t1.5 -19v-234h-21v234q0 11 1.5 18.5t5.5 25.5q-13 -13 -18 -17t-17 -11l-207 -121l-10 19l206 121q10 5 18 7.5l24 7.5q-17 7 -24 9t-18 8z" />
<glyph unicode="+" d="M121 676v20h461v482h20v-482h463v-20h-463v-483h-20v483h-461z" />
<glyph unicode="," horiz-adv-x="378" d="M125 -234q0 3 5 10q10 13 27.5 36t34 54t28 67.5t11.5 77.5q-17 -19 -47 -19q-25 0 -41 17t-16 44q0 25 17 44.5t44 19.5q28 0 46 -20.5t18 -59.5q0 -79 -34.5 -152t-86.5 -129l-3 3q-3 4 -3 7z" />
<glyph unicode="-" horiz-adv-x="655" d="M102 592v20h451v-20h-451z" />
<glyph unicode="." horiz-adv-x="378" d="M123 49q0 28 19 48t46 20q28 0 48 -20t20 -48t-20 -46.5t-48 -18.5t-46.5 18.5t-18.5 46.5z" />
<glyph unicode="/" horiz-adv-x="700" d="M2 -80l655 1542q6 12 21 13h10l-655 -1543q-3 -8 -10 -10t-13 -2h-8z" />
<glyph unicode="0" d="M86 717q0 188 40.5 326t109.5 228.5t161.5 134.5t196.5 44q103 0 196 -44t162 -134.5t109.5 -228.5t40.5 -326t-40.5 -326t-109.5 -228t-162 -133.5t-196 -43.5t-196 43.5t-162 133.5t-109.5 228t-40.5 326zM111 717q0 -184 38 -318.5t104 -221.5t154.5 -129t186.5 -42 t185.5 42t153 129t104 221t38.5 319q0 184 -38.5 318t-104 222t-153 130.5t-185.5 42.5t-186.5 -42.5t-154.5 -130.5t-104 -222t-38 -318z" />
<glyph unicode="1" d="M291 1079l403 363h15v-1422h340v-20h-713v20h348v1328q0 14 1 29t3 29l-371 -335q-5 -5 -10 -5q-6 0 -10 5z" />
<glyph unicode="2" d="M154 0v8q0 6 3 10.5t5 6.5l516 524q63 65 119.5 126t98.5 124.5t66.5 131t24.5 144.5q0 93 -31.5 160.5t-84 110.5t-119 63.5t-136.5 20.5q-80 0 -147 -25t-118 -69.5t-84.5 -106t-45.5 -135.5q-3 -16 -16 -17h-10q11 86 46 155.5t90.5 117.5t127.5 74t157 26 q74 0 145.5 -21.5t126.5 -67t89.5 -116t34.5 -170.5q0 -82 -26.5 -152.5t-70.5 -135t-101.5 -126.5t-121.5 -126l-506 -517q22 2 50 3.5t63 1.5h741q10 0 11 -11v-12h-897z" />
<glyph unicode="3" d="M152 344l4 2q4 2 8 2q8 0 11.5 -6.5t6.5 -18.5q3 -14 12 -43.5t27.5 -65t47.5 -73t75 -68t109.5 -50t150.5 -19.5q105 0 184 35.5t132 90t79.5 120.5t26.5 129q0 74 -25.5 137.5t-81 110.5t-141.5 74t-207 28v16q94 3 171 29.5t131 72t83 107.5t29 138q0 89 -30 153 t-81 105t-116.5 60.5t-134.5 19.5q-80 0 -147.5 -25t-119 -69.5t-85 -106t-46.5 -135.5q-3 -16 -14 -17h-10q11 86 46.5 155.5t90.5 117.5t127.5 74t157.5 26q74 0 143.5 -20.5t123.5 -63.5t87 -111t33 -163q0 -73 -28 -134t-73.5 -106t-105 -74t-121.5 -39q89 -7 158 -36.5 t115.5 -76.5t71 -110t24.5 -137q0 -79 -33.5 -150.5t-93 -126t-141.5 -86.5t-179 -32q-86 0 -151 17t-112.5 45.5t-80 66t-54 77t-34 79.5t-20.5 75z" />
<glyph unicode="4" d="M84 461l741 975h15v-973h303v-8q0 -12 -17 -13h-286v-442h-25v442h-711q-11 0 -13.5 2.5t-4.5 8.5zM113 463h702v891v17q0 9 2 19z" />
<glyph unicode="5" d="M186 90l7 8q4 6 12 6q7 0 31.5 -14.5t66 -33t99.5 -33.5t133 -15q91 0 173 29.5t143 86t97.5 141t36.5 194.5q0 87 -25 160.5t-77.5 127.5t-132.5 84t-190 30q-61 0 -132.5 -9.5t-153.5 -30.5l-18 8l109 605h614v-11q0 -5 -4 -8.5t-10 -3.5h-580l-103 -568 q78 20 147.5 29.5t130.5 9.5q112 0 196.5 -31.5t141 -87t85.5 -134t29 -172.5q0 -113 -39 -201t-104.5 -148.5t-152 -92t-181.5 -31.5q-55 0 -106.5 9t-96 24t-81.5 34t-65 39z" />
<glyph unicode="6" d="M164 440q0 76 43 182t145 244l416 561q3 5 6 6t6 1h21l-428 -578q-55 -75 -92.5 -136t-60.5 -116q27 54 69.5 97t95 73.5t113 47t125.5 16.5q97 0 176 -32t134 -88t85.5 -134t30.5 -170q0 -96 -34 -175t-95 -136t-145 -88t-183 -31q-94 0 -172.5 30t-135.5 88.5 t-88.5 143t-31.5 194.5zM188 424q0 -91 29 -168t81.5 -132.5t127.5 -87.5t166 -32q101 0 181.5 31t136 85.5t85 130t29.5 163.5q0 93 -29 167.5t-82 127t-126.5 80.5t-161.5 28q-104 0 -186 -36.5t-137 -93t-84.5 -126t-29.5 -137.5z" />
<glyph unicode="7" d="M150 1423v11h935v-13q0 -6 -4 -14l-712 -1395q-6 -12 -23 -12h-12l715 1397q3 7 8 14h-895q-12 0 -12 12z" />
<glyph unicode="8" d="M143 367q0 90 29.5 157t78.5 113.5t113 73t134 38.5q-72 13 -128.5 44.5t-94.5 76.5t-58 102t-20 122q0 74 27 138.5t77.5 113t124.5 76.5t168 28q93 0 167.5 -28t125 -76.5t77.5 -113.5t27 -138q0 -65 -20.5 -122t-59 -102t-94 -76.5t-127.5 -44.5q70 -11 134 -38 t113 -73.5t78 -113.5t29 -157q0 -89 -33 -160.5t-93 -120.5t-142.5 -75.5t-181.5 -26.5t-181.5 26.5t-142.5 75.5t-93.5 120.5t-33.5 160.5zM168 367q0 -83 31.5 -150t88.5 -114.5t135 -73t171 -25.5t171 25.5t134.5 73t88.5 114.5t32 150q0 75 -20 131t-54 97.5t-77.5 68.5 t-90.5 43.5t-95 23t-89 6.5q-42 0 -89.5 -6.5t-95 -23t-91 -43.5t-77 -68.5t-53.5 -97.5t-20 -131zM221 1094q0 -66 23 -126.5t69.5 -107t116.5 -74.5t164 -28q93 0 163 28t117 74.5t70 107t23 126.5q0 72 -26 133.5t-74 106t-117 70.5t-156 26t-156 -26t-117.5 -70.5 t-74 -106t-25.5 -133.5z" />
<glyph unicode="9" d="M197 1036q0 90 33.5 166t92.5 131.5t139.5 86t174.5 30.5q88 0 163.5 -31t130.5 -88.5t86.5 -138.5t31.5 -180q0 -50 -12.5 -96.5t-35.5 -95t-57 -102t-78 -118.5l-399 -594q-3 -5 -6 -5.5t-6 -0.5h-21l414 610q51 76 90 135t62 119q-26 -54 -67 -97.5t-92 -74 t-110.5 -47t-122.5 -16.5q-94 0 -170.5 30.5t-130 85t-82 129t-28.5 162.5zM221 1036q0 -89 28.5 -160.5t79 -122t121.5 -77.5t156 -27q99 0 177 35t132 89t81.5 121.5t27.5 131.5q0 87 -29 161.5t-81 128t-122.5 84t-154.5 30.5q-91 0 -167.5 -29t-131.5 -80.5t-86 -124.5 t-31 -160z" />
<glyph unicode=":" horiz-adv-x="460" d="M164 49q0 28 19 48t46 20q28 0 48 -20t20 -48t-20 -46.5t-48 -18.5t-46.5 18.5t-18.5 46.5zM164 907q0 28 19 48t46 20q28 0 48 -20t20 -48t-20 -46.5t-48 -18.5t-46.5 18.5t-18.5 46.5z" />
<glyph unicode=";" horiz-adv-x="460" d="M164 907q0 28 19 48t46 20q28 0 48 -20t20 -48t-20 -46.5t-48 -18.5t-46.5 18.5t-18.5 46.5zM166 -234q0 3 5 10q10 13 27.5 36t34 54t28 67.5t11.5 77.5q-17 -19 -47 -19q-25 0 -41 17t-16 44q0 25 17 44.5t44 19.5q28 0 46 -20.5t18 -59.5q0 -79 -34.5 -152t-86.5 -129 l-3 3q-3 4 -3 7z" />
<glyph unicode="&#x3c;" d="M174 680v12l748 381v-11q0 -12 -20 -22l-658 -333l-24 -12t-24 -9q12 -4 23.5 -9t24.5 -11l658 -334q19 -10 20 -22v-11z" />
<glyph unicode="=" d="M184 532v21h820v-21h-820zM184 834v20h820v-20h-820z" />
<glyph unicode="&#x3e;" d="M266 299v11q0 11 20 22l658 334q11 5 23 10.5t24 9.5q-12 3 -23 9l-24 12l-658 333q-19 9 -20 22v11l748 -381v-12z" />
<glyph unicode="?" horiz-adv-x="710" d="M33 1311q25 26 56 50.5t69.5 44.5t84 32t99.5 12q62 0 121.5 -20t105 -57.5t73.5 -91t28 -122.5q0 -78 -25 -134t-63 -98.5t-82 -75.5t-82.5 -62t-64.5 -59t-27 -66l-7 -177h-16v179q0 40 25 71t63.5 60.5t82.5 61.5t82.5 74t63.5 96.5t25 129.5q0 63 -25.5 113.5 t-67.5 85.5t-97 53.5t-113 18.5q-73 0 -126 -20.5t-89.5 -45.5t-56.5 -45.5t-24 -20.5t-8 6zM246 49q0 28 19 48t46 20q28 0 48 -20t20 -48t-20 -46.5t-48 -18.5t-46.5 18.5t-18.5 46.5z" />
<glyph unicode="@" horiz-adv-x="1681" d="M131 545q0 174 59.5 320t161.5 251t237 163t288 58q88 0 173 -17.5t160 -53t138.5 -89.5t109 -126.5t71 -163.5t25.5 -201q0 -113 -28.5 -203.5t-77.5 -154.5t-114 -98.5t-138 -34.5q-92 0 -132.5 48t-40.5 129q0 13 1 27t3 28q-52 -118 -129 -172t-169 -54q-54 0 -93 19 t-65 51t-38.5 75.5t-12.5 93.5q0 57 15 116t43.5 113t70.5 101t95.5 81.5t118 54.5t138.5 20q42 0 85.5 -8t74.5 -23l-90 -344q-14 -53 -20.5 -95t-6.5 -76q0 -51 13 -83.5t34.5 -50.5t49 -24.5t57.5 -6.5q66 0 126 32.5t106.5 93t74 148.5t27.5 197q0 161 -54 279.5 t-144.5 197t-208.5 116.5t-248 38q-95 0 -186 -25t-171.5 -73t-147.5 -116.5t-115.5 -154t-75.5 -187.5t-27 -216q0 -186 60 -329t163 -240t240.5 -146t289.5 -49q148 0 279 36.5t247 112.5q4 3 9 3q7 0 10 -6l6 -11q-118 -79 -254 -118.5t-297 -39.5t-302 51.5t-246.5 151 t-166.5 246.5t-61 338zM545 440q0 -45 11.5 -85t34.5 -69.5t58.5 -47t83.5 -17.5q42 0 87 14.5t87 52t78.5 102.5t63.5 165l86 332q-32 8 -60.5 13t-73.5 5q-71 0 -132 -19.5t-111.5 -52.5t-90 -78.5t-67 -97.5t-41.5 -107.5t-14 -109.5z" />
<glyph unicode="A" horiz-adv-x="1257" d="M20 0l598 1434h21l598 -1434h-18q-9 0 -13 10l-199 479h-756l-200 -479q-3 -10 -14 -10h-17zM259 510h739l-353 848q-5 11 -8.5 21t-7.5 21q-4 -11 -8 -21t-9 -21z" />
<glyph unicode="B" horiz-adv-x="1302" d="M246 0v1434h372q228 0 340.5 -92t112.5 -265q0 -63 -25 -122.5t-68.5 -106.5t-104 -78.5t-131.5 -38.5q91 -7 164.5 -34t125 -72.5t79.5 -108t28 -139.5q0 -91 -31.5 -162t-91.5 -118.5t-146.5 -72t-195.5 -24.5h-428zM270 20h404q103 0 185 23t139 67.5t86.5 111.5 t29.5 155q0 78 -31 141t-88 107.5t-138.5 68t-180.5 23.5h-406v-697zM270 737h359q115 0 194.5 32t130 81.5t73 109.5t22.5 117q0 160 -106 248t-325 88h-348v-676z" />
<glyph unicode="C" horiz-adv-x="1472" d="M158 717q0 164 49.5 299t140 232t217 149.5t279.5 52.5q78 0 140.5 -10t116.5 -31t102.5 -53t99.5 -74l-4 -5q-4 -5 -9 -5q-8 0 -22 11.5t-37 29t-56.5 38t-80.5 38t-109 29.5t-141 12q-145 0 -266.5 -50t-209 -142.5t-137 -224.5t-49.5 -296q0 -167 49 -299t135 -224.5 t203 -141t254 -48.5q87 0 156 12.5t125.5 36t105 57.5t97.5 78q5 5 8 6q4 0 7 -4l9 -8q-45 -44 -96.5 -80t-113 -62.5t-135.5 -41t-163 -14.5q-144 0 -266 50.5t-211 145.5t-138.5 231t-49.5 306z" />
<glyph unicode="D" horiz-adv-x="1568" d="M246 0v1434h512q147 0 269 -48.5t209.5 -140.5t136 -225t48.5 -303t-48.5 -303t-136 -225.5t-209.5 -140.5t-269 -48h-512zM270 20h488q141 0 258.5 46.5t201.5 135.5t130.5 218.5t46.5 296.5t-46.5 296.5t-130.5 218.5t-201.5 135t-258.5 46h-488v-1393z" />
<glyph unicode="E" horiz-adv-x="1228" d="M246 0v1434h837v-23h-813v-672h691v-22h-691v-694h815l-2 -23h-837z" />
<glyph unicode="F" horiz-adv-x="1181" d="M246 0v1434h837v-23h-813v-692h711v-23h-711v-696h-24z" />
<glyph unicode="G" horiz-adv-x="1558" d="M158 717q0 169 49 304.5t141 231t222.5 146.5t293.5 51q80 0 146.5 -9.5t123.5 -30t107 -51.5t98 -74l-3 -5q-4 -5 -9 -5q-8 0 -34.5 24t-80.5 53t-139 53.5t-209 24.5q-156 0 -281.5 -49t-214.5 -141t-137.5 -224t-48.5 -299t48 -299t135 -224.5t208 -141t269 -48.5 q88 0 159 10t132.5 28.5t116.5 46t110 62.5v445h-322q-12 0 -12 10v10h356v-475q-53 -36 -110 -65t-122 -49.5t-141 -31.5t-167 -11q-155 0 -281 50.5t-215.5 145.5t-138.5 231t-49 306z" />
<glyph unicode="H" horiz-adv-x="1548" d="M246 0v1434h24v-695h1008v695h25v-1434h-25v717h-1008v-717h-24z" />
<glyph unicode="I" horiz-adv-x="598" d="M287 0v1434h24v-1434h-24z" />
<glyph unicode="J" horiz-adv-x="946" d="M117 14l2 6q4 10 12 11q10 0 23.5 -4t32.5 -9.5t44.5 -9.5t61.5 -4q87 0 158 28.5t121 86t77 143.5t27 201v971h24v-971q0 -121 -29.5 -210.5t-83 -149.5t-129 -89.5t-165.5 -29.5q-84 -1 -176 30z" />
<glyph unicode="K" horiz-adv-x="1314" d="M287 0v1436h24v-695h97q19 0 32.5 1t24 5t21 11t22.5 18l668 641q11 9 18 13t18 4h13l-697 -668q-16 -15 -29 -23t-32 -12q18 -3 32 -11t27 -22l740 -698h-11q-15 0 -21.5 3t-14.5 11l-705 666q-15 14 -26.5 22.5t-22.5 12.5t-24.5 5t-32.5 1h-97v-721h-24z" />
<glyph unicode="L" horiz-adv-x="1042" d="M246 0v1434h24v-1411h731v-23h-755z" />
<glyph unicode="M" horiz-adv-x="1841" d="M246 0v1434h8q9 0 14 -9l652 -1096q3 -5 5.5 -10t5.5 -12q3 7 5.5 12t5.5 10l631 1096q5 8 14 9h8v-1434h-20v1370v10q0 5 1 11l-628 -1094q-7 -10 -14 -10h-6q-7 0 -15 10l-648 1093q1 -5 1 -10v-10v-1370h-20z" />
<glyph unicode="N" horiz-adv-x="1548" d="M246 0v1434h8q9 0 14 -9l1015 -1381q-1 5 -1 11v11v1368h21v-1434h-7q-6 0 -11 7l-1020 1388q1 -6 1 -13v-12v-1370h-20z" />
<glyph unicode="O" horiz-adv-x="1632" d="M154 717q0 169 48.5 304.5t136 231t209 146.5t267.5 51q147 0 269 -50.5t209.5 -146t136.5 -231t49 -305.5t-49 -305.5t-136.5 -230t-209 -145t-269.5 -50.5q-146 0 -267.5 50.5t-209 145t-136 230t-48.5 305.5zM178 717q0 -167 47.5 -298.5t132 -223.5t201.5 -140.5 t256 -48.5q141 0 258.5 48.5t201.5 140.5t130.5 223.5t46.5 298.5t-46.5 299t-130.5 224t-201.5 141t-258.5 49q-139 0 -256 -49t-201.5 -141t-132 -224t-47.5 -299z" />
<glyph unicode="P" horiz-adv-x="1185" d="M287 0v1434h323q234 0 360 -101.5t126 -308.5q0 -89 -35.5 -164.5t-100 -129.5t-153.5 -85t-197 -31h-299v-614h-24zM311 635h299q105 0 190.5 30t145.5 83t92.5 123.5t32.5 152.5q0 191 -115 290t-346 99h-299v-778z" />
<glyph unicode="Q" horiz-adv-x="1632" d="M154 717q0 169 48.5 304.5t136 231t209 146.5t267.5 51q147 0 269 -50.5t209.5 -146t136.5 -231t49 -305.5q0 -116 -22.5 -216t-65 -181.5t-103.5 -145t-138 -106.5l380 -402h-23q-8 0 -12.5 2.5t-7.5 5.5l-359 382q-69 -35 -147 -52.5t-166 -17.5q-146 0 -267.5 50.5 t-209 145t-136 230t-48.5 305.5zM178 717q0 -167 47.5 -298.5t132 -223.5t201.5 -140.5t256 -48.5q141 0 258.5 48.5t201.5 140.5t130.5 223.5t46.5 298.5t-46.5 299t-130.5 224t-201.5 141t-258.5 49q-139 0 -256 -49t-201.5 -141t-132 -224t-47.5 -299z" />
<glyph unicode="R" horiz-adv-x="1269" d="M287 0v1434h331q224 0 344.5 -87t120.5 -272q0 -87 -33.5 -157t-95 -119t-147 -77t-189.5 -30q10 -4 18.5 -10.5t16.5 -15.5l559 -666h-16q-8 0 -13 1.5t-14 10.5l-536 643q-9 11 -18 18.5t-19.5 11.5t-25 5.5t-35.5 1.5h-224v-692h-24zM311 713h289q105 0 189.5 25 t144.5 71.5t92.5 113.5t32.5 152q0 175 -114 256.5t-327 81.5h-307v-700z" />
<glyph unicode="S" horiz-adv-x="1056" d="M115 170l4 4q3 3 5 4.5t7 1.5q6 0 18 -12.5t32.5 -32.5t49 -42.5t69.5 -42.5t93.5 -33t120.5 -13q99 0 176.5 32t131.5 85.5t82 125t28 152.5q0 68 -21 117t-57 84.5t-83.5 60.5t-102 45t-110.5 37t-110.5 37.5t-102 46.5t-83.5 63.5t-57 89t-21 122.5q0 69 26 131.5 t75 111t121 77t165 28.5q104 0 185 -34t151 -107l-4 -6q-5 -6 -11 -7q-9 0 -28 21t-55.5 46t-94 46t-143.5 21q-88 0 -156 -27.5t-114 -72.5t-70 -104.5t-24 -123.5q0 -83 32 -138.5t84.5 -93t120 -63t137 -48.5t137 -48.5t120 -65t84.5 -97.5t32 -145q0 -88 -29.5 -164 t-86 -133t-138.5 -89.5t-186 -32.5q-73 0 -130 12.5t-105 36.5t-87.5 58.5t-76.5 78.5z" />
<glyph unicode="T" d="M41 1411v23h1106v-23h-539v-1411h-24v1411h-543z" />
<glyph unicode="U" horiz-adv-x="1507" d="M236 532v902h24v-899q0 -110 34 -207t97.5 -169t155 -113.5t207.5 -41.5t207.5 41.5t155 113t97 168t33.5 205.5v902h25v-902q0 -114 -36 -214t-103.5 -174.5t-163.5 -118t-215 -43.5q-120 0 -216 43.5t-163.5 118t-103 174.5t-35.5 214z" />
<glyph unicode="V" horiz-adv-x="1257" d="M20 1434h19q9 0 12 -11l561 -1347q5 -11 9.5 -22t7.5 -20q3 9 7 20t9 22l561 1347q3 10 15 11h16l-598 -1434h-21z" />
<glyph unicode="W" horiz-adv-x="1964" d="M20 1434h19q9 0 12 -11l419 -1338q5 -14 8.5 -27t6.5 -27q3 14 7 27t9 27l466 1338q3 10 12 11h6q9 0 12 -11l466 -1338q10 -28 16 -54q6 31 15 54l419 1338q3 10 14 11h17l-455 -1434h-21l-477 1376q-6 19 -9 32q-3 -12 -9 -32l-477 -1376h-21z" />
<glyph unicode="X" horiz-adv-x="1150" d="M20 0l539 733l-514 701h23q8 0 11.5 -5.5t6.5 -9.5l491 -673l9 16l479 657q3 5 7.5 10t10.5 5h23l-513 -698l537 -736h-22q-8 0 -12 5.5t-6 8.5l-515 709q-1 -5 -8 -14l-506 -695q-4 -5 -8 -9.5t-10 -4.5h-23z" />
<glyph unicode="Y" horiz-adv-x="1175" d="M41 1434h20q9 0 15 -9l482 -747q8 -13 16 -25t14 -24q5 12 13 24t16 25l483 747q5 8 14 9h21l-535 -825v-609h-25v609z" />
<glyph unicode="Z" horiz-adv-x="1312" d="M143 0v4q0 6 1.5 9.5t5.5 9.5l999 1388h-989v23h1024v-4q0 -9 -8 -21l-998 -1386h1004l-2 -23h-1037z" />
<glyph unicode="[" horiz-adv-x="614" d="M209 -248v1786h280v-6q0 -12 -14 -12h-244v-1749h244q14 0 14 -13v-6h-280z" />
<glyph unicode="\" horiz-adv-x="700" d="M2 1475h10q14 0 21 -13l655 -1542h-8q-6 0 -13 2t-10 10z" />
<glyph unicode="]" horiz-adv-x="614" d="M125 -242q0 12 14 13h244v1749h-244q-14 0 -14 12v6h281v-1786h-281v6z" />
<glyph unicode="^" d="M248 831l334 603h12l334 -603h-15q-13 0 -20 15l-287 518l-10 20t-8 21q-7 -20 -19 -41l-286 -518q-3 -5 -8 -10t-13 -5h-14z" />
<glyph unicode="_" horiz-adv-x="806" d="M0 -246h807v-22h-807v22z" />
<glyph unicode="`" horiz-adv-x="573" d="M131 1450h27q17 0 25 -4t18 -19l168 -241h-15q-11 0 -16 8z" />
<glyph unicode="a" horiz-adv-x="960" d="M123 236q0 68 39.5 121.5t121 91t205 59.5t293.5 27v129q0 79 -17 141t-51 105t-85 66t-119 23q-53 0 -96 -11t-77 -27.5t-59 -36t-43.5 -36t-29.5 -27.5t-17 -11q-4 0 -10 6l-4 4q74 78 153 119t183 41q77 0 132.5 -24.5t92.5 -70.5t54.5 -112.5t17.5 -148.5v-664h-4 q-14 0 -15 16l-6 163q-43 -45 -86 -81.5t-91 -61.5t-103.5 -38.5t-122.5 -13.5q-45 0 -90.5 13.5t-82.5 44t-60 78t-23 116.5zM147 236q0 -60 20 -104t52.5 -72t74 -42t85.5 -14q71 0 128 16.5t105 44t89.5 64t80.5 76.5v309q-323 -10 -479 -80t-156 -198z" />
<glyph unicode="b" horiz-adv-x="1095" d="M195 0v1475h24v-678q68 102 163.5 162.5t209.5 60.5q195 0 298 -125.5t103 -386.5q0 -110 -28 -204.5t-83.5 -164.5t-137.5 -110.5t-191 -40.5q-112 0 -195 44t-140 136l-3 -154q0 -5 -2 -9.5t-10 -4.5h-8zM219 200q66 -105 146.5 -148.5t187.5 -43.5q105 0 183 38.5 t130 106t77.5 158.5t25.5 197q0 250 -96 370.5t-281 120.5q-112 0 -207.5 -62.5t-165.5 -172.5v-564z" />
<glyph unicode="c" horiz-adv-x="911" d="M102 502q0 117 30 212.5t86 163t137.5 105t185.5 37.5q91 0 162 -29t122 -76l-6 -6q-4 -4 -8 -4q-6 0 -23 15t-49 32.5t-81 32t-117 14.5q-97 0 -174 -34.5t-130.5 -99t-81.5 -157t-28 -206.5q0 -119 28 -210.5t80.5 -154.5t125.5 -96t163 -33q80 0 135.5 18.5t91 41 t54 41t24.5 18.5q4 0 9 -4l4 -4q-15 -23 -45 -46t-71 -42t-92 -31t-110 -12q-97 0 -175 34.5t-132.5 100.5t-84.5 161.5t-30 217.5z" />
<glyph unicode="d" horiz-adv-x="1095" d="M102 500q0 109 28 204t83 165t137.5 110.5t192.5 40.5q111 0 193.5 -44t140.5 -136v635h24v-1475h-6q-14 0 -14 16l-4 194q-68 -102 -164 -162t-209 -60q-196 0 -299 125.5t-103 386.5zM127 500q0 -250 95.5 -371t281.5 -121q112 0 207.5 62.5t165.5 172.5v564 q-67 105 -148 148.5t-186 43.5t-183 -38t-130 -106t-77.5 -159t-25.5 -196z" />
<glyph unicode="e" horiz-adv-x="1024" d="M102 522q0 111 30 202.5t86 157t137.5 102t185.5 36.5q79 0 147.5 -28t119 -83.5t79 -136t28.5 -184.5q0 -5 -3.5 -7.5t-8.5 -2.5h-774q-2 -14 -2 -28v-28q0 -125 29.5 -220.5t84.5 -160.5t132.5 -99t171.5 -34q85 0 146 18.5t101.5 41t61 41t27.5 18.5q4 0 8 -4l4 -4 q-17 -22 -51.5 -45t-81 -42.5t-102 -31.5t-113.5 -12q-103 0 -185 36t-139 105t-88 168t-31 225zM130 596h763q0 97 -26.5 172.5t-74.5 126.5t-112.5 77.5t-138.5 26.5q-90 0 -162.5 -29t-124.5 -81.5t-83.5 -127.5t-40.5 -165z" />
<glyph unicode="f" horiz-adv-x="632" d="M35 952v9h180v153q0 86 20.5 149t57 104t86.5 61t110 20q30 0 62 -5.5t53 -17.5l-2 -8q-2 -6 -7 -6q-10 0 -34 8t-72 8q-53 0 -98.5 -16.5t-79 -54t-52.5 -97.5t-19 -145v-153h358v-21h-358v-940h-25v940l-168 4q-12 0 -12 8z" />
<glyph unicode="g" horiz-adv-x="1019" d="M96 -115q0 86 58.5 148t157.5 96q-57 14 -91.5 45.5t-34.5 89.5q0 20 9 43t24 45t37.5 42t49.5 35q-70 41 -107 110.5t-37 160.5q0 71 23.5 130t68 101t107 65.5t141.5 23.5q67 0 121.5 -17.5t97.5 -48.5h244v-4q0 -6 -5.5 -10t-11.5 -4l-200 -4q46 -43 70 -101.5 t24 -130.5t-24 -130.5t-68.5 -100.5t-107 -65t-140.5 -23q-100 0 -176 38q-26 -14 -47.5 -32.5t-37 -39t-24 -42t-8.5 -41.5q0 -51 31.5 -78t84 -40.5t119 -17t136 -6.5t136 -10.5t119 -28.5t84 -59t31.5 -104q0 -60 -31 -115t-88 -97.5t-137.5 -67.5t-179.5 -25 q-101 0 -179 21.5t-131 58.5t-80.5 86t-27.5 104zM121 -115q0 -52 27.5 -97.5t78.5 -79.5t123.5 -53.5t163.5 -19.5q81 0 155.5 21t132 58.5t92 90t34.5 115.5q0 57 -28.5 91.5t-75.5 53.5t-107.5 26t-126 10.5t-130 7t-118.5 13.5q-48 -17 -89 -40t-70 -52.5t-45.5 -65.5 t-16.5 -79zM186 700q0 -67 22 -122t63 -94.5t99.5 -61t131.5 -21.5q75 0 133 21.5t98.5 61t62 95t21.5 121.5q0 67 -22 122.5t-63 94.5t-99.5 60.5t-130.5 21.5q-73 0 -131.5 -21.5t-99.5 -60.5t-63 -94.5t-22 -122.5z" />
<glyph unicode="h" horiz-adv-x="1081" d="M180 0v1475h25v-680q35 51 78.5 92.5t93.5 71t105.5 45.5t113.5 16q167 0 249.5 -99.5t82.5 -277.5v-643h-25v643q0 84 -18.5 150t-56.5 112t-96 70t-136 24q-118 0 -217 -63t-174 -173v-763h-25z" />
<glyph unicode="i" horiz-adv-x="454" d="M170 1376q0 24 17 41t40 17q22 0 40 -17t18 -41q0 -22 -18 -38.5t-40 -16.5q-24 0 -40.5 16.5t-16.5 38.5zM215 0v1004h25v-1004h-25z" />
<glyph unicode="j" horiz-adv-x="450" d="M-47 -360l4 8q4 8 9 8q8 0 25 -9t48 -9q87 0 131.5 51.5t44.5 134.5v1180h25v-1180q0 -45 -14.5 -83t-40.5 -65.5t-63 -43t-83 -15.5q-28 0 -48 6t-38 17zM170 1376q0 24 17 41t40 17q22 0 40 -17t18 -41q0 -22 -18 -38.5t-40 -16.5q-24 0 -40.5 16.5t-16.5 38.5z" />
<glyph unicode="k" horiz-adv-x="950" d="M195 0v1475h24v-926h47q9 0 21.5 2t27.5 16l478 420q8 8 16 12.5t20 4.5h19l-508 -445q-13 -12 -26 -17q14 -4 24.5 -11t19.5 -15l531 -516h-19q-8 0 -14 2t-14 10l-504 490q-8 8 -16 13.5t-16.5 8.5t-19.5 4.5t-26 1.5h-41v-530h-24z" />
<glyph unicode="l" horiz-adv-x="454" d="M215 0v1475h25v-1475h-25z" />
<glyph unicode="m" horiz-adv-x="1585" d="M180 0v1004h6q14 0 15 -17l3 -189q58 101 142 161.5t182 60.5q121 0 189 -75t85 -213q12 73 42 127t73.5 90t96 53.5t108.5 17.5q71 0 128.5 -24.5t97.5 -72t62 -118.5t22 -162v-643h-25v643q0 173 -74.5 264.5t-210.5 91.5q-60 0 -116 -22.5t-99 -67t-68.5 -111 t-25.5 -155.5v-643h-25v643q0 84 -16.5 150t-50 112t-82.5 70t-113 24q-97 0 -178.5 -61.5t-142.5 -171.5v-766h-25z" />
<glyph unicode="n" horiz-adv-x="1081" d="M180 0v1004h6q14 0 15 -17l3 -193q35 51 78.5 93t93.5 71.5t105.5 45.5t114.5 16q167 0 249.5 -99.5t82.5 -277.5v-643h-25v643q0 84 -18.5 150t-56.5 112t-96 70t-136 24q-118 0 -217 -63t-174 -173v-763h-25z" />
<glyph unicode="o" horiz-adv-x="1081" d="M102 502q0 117 29 212.5t84.5 163t137 105t188.5 37.5q105 0 187 -37.5t138 -105t84.5 -163.5t28.5 -212q0 -117 -28.5 -211.5t-84.5 -162.5t-138 -104t-187 -36q-106 0 -188 36t-137.5 104t-84.5 162.5t-29 211.5zM127 502q0 -111 26 -202t78 -155.5t129 -100.5t181 -36 q102 0 180 36t129.5 100.5t77.5 155.5t26 202t-26 202.5t-77.5 157t-129.5 101.5t-180 36q-103 0 -180.5 -36t-129.5 -101.5t-78 -157t-26 -202.5z" />
<glyph unicode="p" horiz-adv-x="1067" d="M180 -369v1373h6q14 0 15 -17l3 -190q68 103 163.5 163t210.5 60q195 0 298 -125.5t103 -386.5q0 -110 -28 -204.5t-83.5 -164.5t-138 -110.5t-190.5 -40.5q-221 0 -334 179v-536h-25zM205 200q66 -105 146.5 -148.5t187.5 -43.5q105 0 183 38.5t129.5 106t77 158.5 t25.5 197q0 250 -95.5 370.5t-280.5 120.5q-112 0 -208 -62.5t-165 -172.5v-564z" />
<glyph unicode="q" horiz-adv-x="1095" d="M102 500q0 109 28 204t83 165t137.5 110.5t192.5 40.5q111 0 193.5 -44t140.5 -136l4 147q0 16 14 17h6v-1373h-24v579q-68 -102 -164 -162t-209 -60q-196 0 -299 125.5t-103 386.5zM127 500q0 -250 95.5 -371t281.5 -121q112 0 207.5 62.5t165.5 172.5v565 q-61 101 -144.5 146t-189.5 45q-105 0 -183 -38t-130 -106t-77.5 -159t-25.5 -196z" />
<glyph unicode="r" horiz-adv-x="802" d="M180 0v1004h6q14 0 15 -17l3 -278q22 75 53.5 132.5t74.5 97.5t97.5 60.5t123.5 20.5q49 0 91 -10.5t81 -28.5l-4 -8q-2 -3 -3.5 -5.5t-6.5 -2.5t-17 5t-31 11t-46 11t-64 5q-134 0 -217 -88t-131 -250v-659h-25z" />
<glyph unicode="s" horiz-adv-x="874" d="M115 104l6 7q3 3 5 4.5t7 1.5q8 0 26.5 -17.5t52 -39t84 -39t124.5 -17.5t130.5 21.5t95.5 59t59 87t20 107.5t-25.5 96.5t-67 65t-95 44.5t-108.5 34.5t-108.5 34.5t-95 45.5t-67 67.5t-25.5 99q0 50 22.5 95.5t63.5 81t98 56.5t125 21q85 0 149.5 -23t125.5 -75l-4 -7 q-4 -6 -11 -6q-8 0 -23.5 14t-46 31t-76.5 31t-114 14q-63 0 -116 -19t-90.5 -51.5t-58.5 -74.5t-21 -88q0 -54 25.5 -90.5t67 -61.5t94.5 -42.5t108.5 -34.5t108.5 -36t94.5 -47.5t67.5 -70t26 -102.5t-22.5 -115.5t-64 -94.5t-102.5 -63.5t-139 -23.5q-54 0 -96.5 8.5 t-79 24t-67.5 37.5t-62 50z" />
<glyph unicode="t" horiz-adv-x="700" d="M59 950v6l181 5l8 403q0 5 2.5 9.5t7.5 4.5h6v-417h342v-21h-342v-750q0 -51 13 -86t35.5 -57t52 -32.5t63.5 -10.5q43 0 75.5 13.5t55 28.5t36 28.5t19.5 13.5q4 0 9 -4l4 -4q-15 -20 -37.5 -38t-48.5 -31t-55 -20t-58 -7q-88 0 -138 48t-50 158v750h-166q-15 0 -15 10z " />
<glyph unicode="u" horiz-adv-x="1081" d="M154 360v644h24v-644q0 -84 18.5 -150t57 -112t96 -70t135.5 -24q118 0 217 62.5t175 173.5v764h24v-1004h-6q-14 0 -14 16l-4 193q-36 -51 -79 -93t-93.5 -71.5t-105.5 -45t-114 -15.5q-168 0 -249.5 99t-81.5 277z" />
<glyph unicode="v" horiz-adv-x="952" d="M31 1004h14q8 0 12 -5t6 -10l400 -919q4 -9 7.5 -18.5t5.5 -19.5q2 10 5.5 19t7.5 19l400 919q7 14 18 15h15l-437 -1004h-18z" />
<glyph unicode="w" horiz-adv-x="1458" d="M31 1004h14q8 0 12 -5t6 -10l308 -919q4 -11 7.5 -21.5t5.5 -21.5q2 11 5.5 21t7.5 22l320 929q3 10 10 11h6q7 0 10 -11l318 -929q4 -11 7.5 -22.5t5.5 -19.5q5 19 13 42l308 919q7 14 18 15h14l-344 -1004h-10q-9 0 -12 10l-322 934q-6 16 -9 29q-2 -7 -4.5 -14 t-4.5 -15l-326 -934q-3 -10 -10 -10h-10z" />
<glyph unicode="x" horiz-adv-x="866" d="M41 0l375 510l-361 494h23q8 0 12 -6l6 -9l337 -466q2 4 4 7.5t5 8.5l328 450q3 5 7.5 10t10.5 5h23l-361 -491l375 -513h-22q-8 0 -12.5 5.5t-6.5 8.5l-352 486q-1 -5 -8 -15l-342 -471q-4 -5 -8 -9.5t-11 -4.5h-22z" />
<glyph unicode="y" horiz-adv-x="952" d="M31 1004h14q8 0 13 -5t8 -10l399 -911q4 -9 7.5 -18.5t5.5 -19.5q2 10 5.5 19.5t8.5 18.5l399 911q7 14 18 15h15l-592 -1350q-3 -8 -9.5 -15.5t-15.5 -7.5h-14l172 386z" />
<glyph unicode="z" horiz-adv-x="909" d="M80 0v6q0 5 1.5 7t4.5 7l704 963h-675v21h708v-11q0 -3 -1.5 -5t-4.5 -7l-702 -961h678v-20h-713z" />
<glyph unicode="{" horiz-adv-x="614" d="M82 635v20q38 0 70 12t55.5 33.5t37 51t13.5 65.5q0 59 -10.5 115.5t-24 112t-24.5 112t-11 117.5q0 55 18 103t50.5 84t78 56.5t99.5 20.5h58v-8q0 -10 -13 -10h-45q-48 0 -88.5 -17.5t-70.5 -50t-47 -77.5t-17 -101q0 -58 10.5 -115t24 -114t24.5 -114t11 -114 q0 -39 -14 -69t-35.5 -51.5t-48 -34.5t-52.5 -17q26 -5 52.5 -18t48 -34.5t35.5 -51t14 -68.5q0 -57 -11 -114t-24.5 -114t-24 -113.5t-10.5 -115.5q0 -56 17 -101t47 -77.5t70.5 -49.5t88.5 -17h45q12 0 13 -11v-8h-58q-54 0 -99.5 20.5t-78 56.5t-50.5 84t-18 103 q0 60 11 117t24.5 112.5t24 111.5t10.5 116q0 35 -13.5 64.5t-37 51t-55.5 34t-70 12.5z" />
<glyph unicode="|" horiz-adv-x="614" d="M297 -369v1907h20v-1907h-20z" />
<glyph unicode="}" horiz-adv-x="614" d="M123 -240q0 10 12 11h45q47 0 88 17t71.5 49.5t47 77.5t16.5 101q0 58 -10.5 115t-24 114t-24 114t-10.5 114q0 39 13.5 68.5t35 51t48.5 34.5t51 18q-25 4 -51.5 17t-48 34.5t-35 51.5t-13.5 69q0 57 10.5 114t24 114t24 113.5t10.5 115.5q0 56 -16.5 101t-47 77.5 t-71.5 50t-88 17.5h-45q-12 0 -12 10v8h57q54 0 100 -20.5t78 -56.5t50 -84t18 -103q0 -60 -11 -117t-24 -112.5t-24 -111.5t-11 -116q0 -36 13.5 -65.5t37 -51t56 -33.5t69.5 -12v-20q-38 0 -70 -12.5t-55.5 -34t-37 -51t-13.5 -64.5q0 -60 11 -116t24 -111.5t24 -112 t11 -117.5q0 -55 -18 -103t-50 -84t-78 -56.5t-100 -20.5h-57v8z" />
<glyph unicode="~" d="M164 463q0 44 13.5 85t40.5 72t66 49.5t89 18.5q52 0 109.5 -23t114.5 -50.5t113 -50.5t105 -23q43 0 77.5 15.5t59 43.5t37.5 65t15 80h20q0 -45 -14 -85t-40.5 -71.5t-65.5 -50t-89 -18.5q-52 0 -109.5 23t-114.5 51t-113 51t-105 23q-43 0 -77.5 -16t-59 -43.5 t-38 -65t-14.5 -80.5h-20z" />
<glyph unicode="&#xa1;" horiz-adv-x="624" d="M246 954q0 28 19 47t46 19q28 0 48 -19t20 -47t-20 -47.5t-48 -19.5t-46.5 19.5t-18.5 47.5zM301 203q0 45 0.5 84.5t1 80.5t1.5 88t3 107h17q1 -60 2.5 -107t2 -88t1 -80.5t0.5 -84.5v-572h-29v572z" />
<glyph unicode="&#xa2;" d="M180 502q0 117 33 212.5t94.5 163t151 105t203.5 37.5l8 235q0 16 12 17h10l-9 -253q93 -3 165.5 -32t124.5 -72l-6 -6q-4 -4 -9 -4q-6 0 -23 14t-50 31t-82.5 32t-119.5 17l-34 -991q86 1 146.5 19.5t99 40.5t58.5 40.5t26 18.5q4 0 8 -4l4 -4q-16 -23 -48 -46 t-76 -41.5t-99 -30.5t-119 -13l-8 -246q0 -16 -12 -16h-11l9 263q-102 3 -185 38.5t-141 101.5t-89.5 160t-31.5 213zM205 502q0 -116 30 -206.5t85.5 -153.5t133 -97t174.5 -37l32 991q-108 0 -192 -34.5t-142.5 -99t-89.5 -156.5t-31 -207z" />
<glyph unicode="&#xa3;" d="M82 664v8q0 6 4.5 9t9.5 3h197v330q0 94 25.5 174t75.5 137.5t125 90t173 32.5q76 0 133.5 -18.5t99.5 -49t70.5 -72t48.5 -87.5l-8 -2q-2 -1 -3 -1h-4q-6 0 -13 11q-20 37 -45.5 72.5t-62.5 63.5t-89 45t-127 17q-92 0 -162 -30.5t-117 -85.5t-71.5 -131t-24.5 -166 v-330h525v-10q0 -5 -3.5 -7.5t-9.5 -2.5h-512v-367q0 -53 -12 -95.5t-34.5 -76.5t-54.5 -60t-72 -46q20 2 37.5 3t37.5 1h903v-11q0 -5 -4 -8.5t-10 -3.5h-999v23q36 16 69 38.5t58.5 55.5t41 77t15.5 103v367h-211z" />
<glyph unicode="&#xa4;" d="M186 293l162 162q-43 46 -67.5 104.5t-24.5 126.5t24 127t67 106l-161 160l15 15l160 -161q46 43 105.5 68t127.5 25t127.5 -24.5t105.5 -67.5l160 160l14 -15l-159 -159q43 -46 67.5 -106t24.5 -128t-25 -127t-68 -105l160 -161l-14 -14l-161 160q-46 -43 -105 -67 t-127 -24t-126.5 24.5t-105.5 67.5l-161 -161zM276 686q0 -66 25.5 -123.5t68.5 -100.5t100.5 -68t123.5 -25t124 25t101.5 68t68.5 101t25 123q0 66 -25 124t-68.5 101.5t-102 69t-123.5 25.5q-66 0 -123.5 -25.5t-100.5 -69t-68.5 -101.5t-25.5 -124z" />
<glyph unicode="&#xa5;" d="M123 1434h20q9 0 15 -9l415 -768q5 -8 8.5 -14.5t6.5 -14.5q3 8 6 14.5t8 14.5l416 768q5 8 14 9h21l-446 -811h390v-21h-397v-131h397v-20h-397v-451h-25v451h-397v20h397v131h-397v21h390z" />
<glyph unicode="&#xa6;" horiz-adv-x="614" d="M297 -369v781h20v-781h-20zM297 758v780h20v-780h-20z" />
<glyph unicode="&#xa7;" horiz-adv-x="1021" d="M164 745q0 37 11 72t36 66t64.5 58.5t98.5 48.5q-30 18 -54.5 39t-42 46t-27.5 55t-10 66q0 50 22.5 95.5t63.5 81t97.5 56.5t125.5 21q85 0 149.5 -23t122.5 -77l-3 -5q-4 -5 -9 -6q-8 0 -24 14t-46 31t-76.5 31.5t-113.5 14.5q-63 0 -116 -19.5t-91 -52t-59 -74.5 t-21 -88q0 -54 26 -94t69 -71.5t97.5 -56.5t112 -50t111.5 -53t97 -64.5t69 -84t26 -112.5q0 -87 -45 -148t-122 -97q55 -39 90.5 -88.5t35.5 -118.5q0 -61 -22 -115.5t-64 -94.5t-102.5 -63.5t-138.5 -23.5q-54 0 -97 8.5t-79 24t-67.5 38t-61.5 50.5l6 6q3 3 5 4.5t7 1.5 q8 0 26.5 -17.5t52 -39t84 -39t124.5 -17.5t130.5 21.5t95.5 59t59 87t20 107.5t-27.5 101t-72.5 77t-103 61t-118.5 52.5t-118.5 53t-103 62t-72.5 79t-27.5 103.5zM186 745q0 -50 23.5 -88.5t63 -69.5t91.5 -56.5t107 -49.5t110.5 -49t102.5 -55q87 40 125.5 98.5 t38.5 132.5q0 55 -21 97.5t-57 75t-82 57.5t-96.5 48t-102 45t-96.5 48q-114 -45 -160.5 -103t-46.5 -131z" />
<glyph unicode="&#xa8;" horiz-adv-x="573" d="M61 1311q0 24 17 40.5t41 16.5q22 0 39.5 -17t17.5 -40q0 -22 -18 -39t-39 -17q-24 0 -41 17t-17 39zM397 1311q0 24 17 40.5t41 16.5q22 0 39.5 -17t17.5 -40q0 -22 -18 -39t-39 -17q-24 0 -41 17t-17 39z" />
<glyph unicode="&#xa9;" horiz-adv-x="1667" d="M102 717q0 152 57.5 285t157 232t232.5 156.5t285 57.5t284.5 -57.5t232 -156.5t157 -232.5t57.5 -284.5q0 -152 -57.5 -285t-157 -232.5t-232.5 -156.5t-284 -57q-152 0 -285 57t-232.5 156.5t-157 232.5t-57.5 285zM127 717q0 -146 55.5 -275.5t151 -225t224.5 -151 t276 -55.5q98 0 188 25t169 71.5t143.5 111t111 142.5t71.5 168t25 189q0 97 -25 187.5t-71.5 169.5t-111 143.5t-143.5 111t-169.5 71.5t-187.5 25q-98 0 -188.5 -25t-169 -71.5t-143 -111t-110.5 -143.5t-71 -169.5t-25 -187.5zM399 717q0 102 33.5 186t94 144t145 93.5 t186.5 33.5q52 0 94 -7t78.5 -19.5t69.5 -32.5t65 -46l-4 -6q-3 -4 -8 -4q-8 0 -25.5 15t-51.5 32t-86.5 32t-131.5 15q-96 0 -176 -30t-137.5 -87t-89 -138t-31.5 -181q0 -102 31.5 -182.5t87.5 -136.5t133 -85.5t168 -29.5q58 0 103.5 7t83 21t69.5 35t63 47q2 2 6 2 t11 -6l4 -4q-31 -27 -65.5 -49.5t-76 -38.5t-90.5 -25.5t-108 -9.5q-97 0 -178.5 32t-140.5 90.5t-92.5 143t-33.5 189.5z" />
<glyph unicode="&#xaa;" horiz-adv-x="675" d="M121 993q0 39 23.5 71.5t73.5 56t127 37t183 16.5v65h23v-381h-8q-8 0 -11 10l-4 90q-53 -52 -109.5 -81t-135.5 -29q-30 0 -58.5 8t-51.5 25.5t-37.5 45t-14.5 66.5zM143 995q0 -34 12.5 -58t32.5 -39t45 -22.5t52 -7.5q42 0 76 9.5t63.5 25.5t55 37t48.5 43v170 q-197 -6 -291 -46.5t-94 -111.5zM156 1354q45 46 93 69t111 23q97 0 144 -55t47 -152h-23q0 90 -39.5 138t-128.5 48q-48 0 -81.5 -12.5t-56 -28t-35.5 -28.5t-19 -13q-4 0 -8 5z" />
<glyph unicode="&#xab;" horiz-adv-x="847" d="M174 520v4l240 379l6 -4q6 -5 6 -12q0 -5 -4 -13l-209 -329q-14 -20 -18 -23q6 -4 18 -22l209 -330q4 -7 4 -12q0 -8 -6 -13l-6 -4zM399 520v4l240 379l6 -4q6 -5 6 -12q0 -5 -4 -13l-209 -329q-14 -20 -18 -23q6 -4 18 -22l209 -330q4 -7 4 -12q0 -8 -6 -13l-6 -4z" />
<glyph unicode="&#xac;" d="M182 676v20h822v-327h-23v307h-799z" />
<glyph unicode="&#xad;" horiz-adv-x="655" d="M102 592v20h451v-20h-451z" />
<glyph unicode="&#xae;" horiz-adv-x="1667" d="M102 717q0 152 57.5 285t157 232t232.5 156.5t285 57.5t284.5 -57.5t232 -156.5t157 -232.5t57.5 -284.5q0 -152 -57.5 -285t-157 -232.5t-232.5 -156.5t-284 -57q-152 0 -285 57t-232.5 156.5t-157 232.5t-57.5 285zM127 717q0 -146 55.5 -275.5t151 -225t224.5 -151 t276 -55.5q98 0 188 25t169 71.5t143.5 111t111 142.5t71.5 168t25 189q0 97 -25 187.5t-71.5 169.5t-111 143.5t-143.5 111t-169.5 71.5t-187.5 25q-98 0 -188.5 -25t-169 -71.5t-143 -111t-110.5 -143.5t-71 -169.5t-25 -187.5zM588 266v901h217q140 0 216.5 -54.5 t76.5 -170.5q0 -54 -20.5 -97.5t-58.5 -75t-90 -49t-116 -20.5q9 -4 17 -10.5t16 -15.5l342 -408h-21q-5 0 -8 1t-8 7l-338 404q-8 9 -20 15.5t-41 6.5h-140v-434h-24zM612 721h181q133 0 206.5 57.5t73.5 163.5q0 109 -67 157t-201 48h-193v-426z" />
<glyph unicode="&#xaf;" horiz-adv-x="573" d="M20 1300v21h533v-21h-533z" />
<glyph unicode="&#xb0;" horiz-adv-x="796" d="M111 1167q0 59 22.5 110.5t60.5 90t90.5 60.5t112.5 22q59 0 112 -22t91.5 -60.5t61 -89.5t22.5 -111q0 -59 -22.5 -110.5t-61 -90t-91 -61t-112.5 -22.5t-112.5 22.5t-90.5 61t-60.5 90t-22.5 110.5zM135 1167q0 -54 20.5 -102t56 -83.5t83.5 -56t102 -20.5t102.5 20.5 t83.5 56t55.5 83.5t20.5 102t-20.5 102.5t-55.5 84t-83 56t-103 20.5q-54 0 -102 -20.5t-83.5 -56t-56 -84t-20.5 -102.5z" />
<glyph unicode="&#xb1;" d="M121 82v20h944v-20h-944zM121 676v20h461v441h20v-441h463v-20h-463v-443h-20v443h-461z" />
<glyph unicode="&#xb2;" horiz-adv-x="675" d="M115 922v8q0 6 6 12l254 258q32 32 59.5 62t48 61t32 64t11.5 71q0 44 -15 76.5t-40 53.5t-57 30.5t-66 9.5q-77 0 -126 -44.5t-64 -115.5q-3 -10 -15 -10l-10 2q6 44 24.5 79t46 59.5t64.5 37.5t80 13q38 0 74.5 -11.5t64.5 -34.5t45 -59t17 -86q0 -41 -13 -75.5 t-35 -67t-50.5 -63t-59.5 -62.5l-248 -252q24 4 64 4h352q8 0 8 -8v-12h-452z" />
<glyph unicode="&#xb3;" horiz-adv-x="675" d="M113 1094l8 4q4 2 7 2q7 0 9 -5t4 -13q3 -12 13 -37t32 -50t59.5 -44t96.5 -19q50 0 88.5 17t63.5 43t38 58t13 62q0 36 -12.5 67t-38.5 54t-68.5 36t-101.5 13v16q96 3 149 49t53 119q0 42 -14 73t-38.5 51t-56 29t-65.5 9q-41 0 -73 -12.5t-56 -34t-39.5 -51 t-21.5 -62.5q-2 -10 -10 -10q-3 1 -7 1q-6 0 -8 1q6 44 24.5 79t46.5 59.5t64.5 37.5t79.5 13q38 0 74 -11t63 -33t43.5 -55.5t16.5 -81.5q0 -36 -13 -65.5t-34 -52t-49 -37t-59 -20.5q85 -10 130 -58.5t45 -120.5q0 -42 -16.5 -78.5t-47.5 -63.5t-72.5 -43t-90.5 -16 q-63 0 -104 18t-66.5 44.5t-38.5 58.5t-20 60z" />
<glyph unicode="&#xb4;" horiz-adv-x="573" d="M221 1186l168 241q9 14 17.5 18.5t25.5 4.5h27l-207 -256q-7 -8 -16 -8h-15z" />
<glyph unicode="&#xb5;" horiz-adv-x="1081" d="M154 -356v1360h24v-660q0 -78 19 -140.5t57.5 -107t96.5 -68.5t134 -24q118 0 217 62.5t175 173.5v764h24v-1004h-6q-13 0 -18 16v193q-36 -51 -79 -93t-93.5 -71.5t-105.5 -45t-114 -15.5q-133 0 -208.5 63t-101.5 178q1 -51 2 -110t1 -105v-379h-12q-6 0 -9 4t-3 9z " />
<glyph unicode="&#xb6;" horiz-adv-x="1228" d="M66 1102q0 77 30 138.5t87.5 104.5t140.5 66t188 23h666v-23h-236v-1595h-24v1595h-381v-1595h-25v934q-105 0 -188 26.5t-140.5 73.5t-87.5 111.5t-30 140.5z" />
<glyph unicode="&#xb7;" horiz-adv-x="532" d="M205 604q0 27 18 45.5t41 18.5q27 0 45.5 -18.5t18.5 -45.5q0 -24 -18.5 -41.5t-45.5 -17.5q-24 0 -41.5 17.5t-17.5 41.5z" />
<glyph unicode="&#xb8;" horiz-adv-x="573" d="M135 -313l4 4q6 6 11 6q4 0 13 -7t25.5 -15.5t40.5 -15.5t60 -7q61 0 96 27t35 75q0 32 -15.5 52.5t-42 33.5t-62.5 19.5t-77 11.5l41 129h19l-36 -112q44 -7 79.5 -16t61.5 -24.5t40 -37.5t14 -54q0 -30 -11.5 -52t-33 -38t-51 -24.5t-63.5 -8.5q-42 0 -83 15t-65 39z " />
<glyph unicode="&#xb9;" horiz-adv-x="675" d="M180 1462l205 183h16v-705h166v-18h-362v18h172v641l4 34l-180 -163q-3 -3 -7 -3q-5 0 -9 4z" />
<glyph unicode="&#xba;" horiz-adv-x="751" d="M102 1145q0 69 18 124t53.5 94.5t86 61t117.5 21.5q66 0 116.5 -21.5t85 -61t52.5 -95t18 -123.5q0 -69 -18 -124t-52.5 -94t-85.5 -60t-116 -21q-67 0 -117.5 21t-86 60t-53.5 94t-18 124zM123 1145q0 -63 16 -115.5t48 -89.5t79 -57.5t111 -20.5q62 0 109.5 20.5 t79 57.5t47.5 89t16 116q0 63 -16 116t-47.5 90.5t-79 58t-109.5 20.5q-63 0 -110.5 -20.5t-79.5 -58t-48 -90.5t-16 -116z" />
<glyph unicode="&#xbb;" horiz-adv-x="847" d="M193 158q0 5 4 12l209 330q6 10 10.5 15t7.5 7q-6 3 -18 23l-209 329q-4 7 -4 13q0 7 6 12l6 4l239 -379v-4l-239 -379l-6 4q-6 5 -6 13zM418 158q0 5 4 12l209 330q6 10 10.5 15t7.5 7q-6 3 -18 23l-209 329q-4 7 -4 13q0 7 6 12l6 4l240 -379v-4l-240 -379l-6 4 q-6 5 -6 13z" />
<glyph unicode="&#xbc;" horiz-adv-x="1458" d="M166 1255l205 183h16v-705h166v-18h-363v18h172v641l5 34l-181 -163q-3 -3 -7 -3q-5 0 -8 4zM361 0l803 1421q6 12 21 13h12l-803 -1422q-5 -8 -10.5 -10t-11.5 -2h-11zM885 233l368 486h19v-483h145v-11q0 -8 -10 -8h-135v-217h-23v217h-350q-11 0 -12 6zM911 236h338 v426v11q0 6 1 12z" />
<glyph unicode="&#xbd;" horiz-adv-x="1458" d="M166 1255l205 183h16v-705h166v-18h-363v18h172v641l5 34l-181 -163q-3 -3 -7 -3q-5 0 -8 4zM311 0l803 1421q6 12 21 13h12l-803 -1422q-5 -8 -10.5 -10t-11.5 -2h-11zM920 0v8q0 6 6 12l254 259q32 32 59.5 62t48 60.5t32 64t11.5 71.5q0 44 -15.5 76t-40 53t-56.5 31 t-66 10q-77 0 -126 -45t-64 -115q-3 -10 -15 -10l-10 2q6 44 24.5 78.5t46 59t64.5 37.5t80 13q38 0 74.5 -11t64.5 -34.5t45 -59t17 -85.5q0 -41 -13 -76t-35 -67.5t-50.5 -63t-59.5 -62.5l-248 -252q24 4 64 4h352q8 0 8 -8v-12h-452z" />
<glyph unicode="&#xbe;" horiz-adv-x="1464" d="M98 887l8 4q4 2 7 2q8 0 10 -5.5t4 -11.5q3 -12 13 -37.5t32 -50.5t59 -44t97 -19q50 0 88.5 17t63.5 43t37.5 58.5t12.5 61.5q0 36 -12 67.5t-38 54.5t-68.5 35.5t-102.5 12.5v17q96 3 149.5 48.5t53.5 119.5q0 42 -14.5 72.5t-39 50.5t-55.5 29t-65 9q-77 0 -126 -44.5 t-65 -114.5q-3 -10 -12 -11l-12 2q6 44 24.5 79t46 59.5t64.5 37.5t80 13q38 0 73.5 -11t63 -33t44 -55.5t16.5 -80.5q0 -36 -13 -66t-34 -52.5t-49 -36.5t-59 -21q85 -10 130 -58.5t45 -120.5q0 -42 -17 -78t-47.5 -63.5t-72 -43t-90.5 -15.5q-63 0 -104.5 17.5t-66.5 44.5 t-38.5 58.5t-20.5 59.5zM373 0l803 1421q6 12 20 13h12l-802 -1422q-5 -8 -11 -10t-12 -2h-10zM885 233l368 486h19v-483h145v-11q0 -8 -10 -8h-135v-217h-23v217h-350q-11 0 -12 6zM911 236h338v426v11q0 6 1 12z" />
<glyph unicode="&#xbf;" horiz-adv-x="710" d="M41 -88q0 77 25 132t63 95.5t82.5 70.5t82.5 57t64 55t27 65l6 176h17v-178q0 -40 -25.5 -69.5t-63.5 -57.5t-82 -57t-82.5 -68.5t-63.5 -92.5t-25 -128q0 -63 25.5 -113.5t67.5 -85.5t96.5 -53t113.5 -18q74 0 127.5 20.5t89 45t54 45t25.5 20.5q3 0 7 -4l6 -9 q-25 -27 -56 -51t-69.5 -44t-84.5 -32t-99 -12q-63 0 -122.5 20t-105 57.5t-73 91t-27.5 122.5zM334 952q0 28 19 48t46 20q28 0 48 -20t20 -48t-20 -46.5t-48 -18.5t-46.5 18.5t-18.5 46.5z" />
<glyph unicode="&#xc0;" horiz-adv-x="1257" d="M20 0l598 1434h21l598 -1434h-18q-9 0 -13 10l-199 479h-756l-200 -479q-3 -10 -14 -10h-17zM259 510h739l-353 848q-5 11 -8.5 21t-7.5 21q-4 -11 -8 -21t-9 -21zM387 1802h37q17 0 25.5 -3t17.5 -11l248 -213h-13q-9 0 -18 6z" />
<glyph unicode="&#xc1;" horiz-adv-x="1257" d="M20 0l598 1434h21l598 -1434h-18q-9 0 -13 10l-199 479h-756l-200 -479q-3 -10 -14 -10h-17zM259 510h739l-353 848q-5 11 -8.5 21t-7.5 21q-4 -11 -8 -21t-9 -21zM551 1575l248 213q9 8 17 11t26 3h37l-297 -221q-9 -6 -19 -6h-12z" />
<glyph unicode="&#xc2;" horiz-adv-x="1257" d="M20 0l598 1434h21l598 -1434h-18q-9 0 -13 10l-199 479h-756l-200 -479q-3 -10 -14 -10h-17zM259 510h739l-353 848q-5 11 -8.5 21t-7.5 21q-4 -11 -8 -21t-9 -21zM383 1575l238 194h16l237 -194h-20q-5 0 -10 1.5t-10 6.5l-201 164q-2 1 -2.5 2t-1.5 2l-4 -4l-201 -164 q-9 -8 -21 -8h-20z" />
<glyph unicode="&#xc3;" horiz-adv-x="1257" d="M20 0l598 1434h21l598 -1434h-18q-9 0 -13 10l-199 479h-756l-200 -479q-3 -10 -14 -10h-17zM259 510h739l-353 848q-5 11 -8.5 21t-7.5 21q-4 -11 -8 -21t-9 -21zM399 1595q0 28 8 53t23 43.5t37.5 30t52.5 11.5q34 0 62.5 -18.5t56 -41t54.5 -41t57 -18.5 q51 0 75.5 33.5t26.5 83.5h16q0 -28 -7 -53t-21.5 -43.5t-37 -30t-52.5 -11.5q-33 0 -62 18.5t-56.5 41t-54.5 41t-57 18.5q-25 0 -43.5 -9t-31.5 -25t-19.5 -37.5t-7.5 -45.5h-19z" />
<glyph unicode="&#xc4;" horiz-adv-x="1257" d="M20 0l598 1434h21l598 -1434h-18q-9 0 -13 10l-199 479h-756l-200 -479q-3 -10 -14 -10h-17zM259 510h739l-353 848q-5 11 -8.5 21t-7.5 21q-4 -11 -8 -21t-9 -21zM362 1704q0 24 17 40.5t41 16.5q22 0 39.5 -17t17.5 -40q0 -22 -18 -38.5t-39 -16.5q-24 0 -41 16.5 t-17 38.5zM780 1704q0 24 17 40.5t41 16.5q22 0 39.5 -17t17.5 -40q0 -22 -18 -38.5t-39 -16.5q-24 0 -41 16.5t-17 38.5z" />
<glyph unicode="&#xc5;" horiz-adv-x="1257" d="M20 0l598 1434h21l598 -1434h-18q-9 0 -13 10l-199 479h-756l-200 -479q-3 -10 -14 -10h-17zM259 510h739l-353 848q-5 11 -8.5 21t-7.5 21q-4 -11 -8 -21t-9 -21zM477 1642q0 32 12 58.5t32.5 46.5t48 31.5t59.5 11.5t59.5 -11.5t48 -31.5t32 -46.5t11.5 -58.5 t-11.5 -58t-32 -46t-48.5 -31.5t-59 -11.5q-32 0 -59.5 11.5t-48 31.5t-32.5 46t-12 58zM500 1642q0 -28 9.5 -51t27 -40.5t41 -27.5t51.5 -10t51 10t40.5 27.5t27.5 41t10 50.5q0 28 -10 51.5t-27.5 41t-41 27.5t-50.5 10q-28 0 -51.5 -10t-41 -27.5t-27 -41t-9.5 -51.5z " />
<glyph unicode="&#xc6;" horiz-adv-x="1882" d="M-14 0l823 1434h928v-23h-894l87 -672h684v-22h-681l90 -694h716l-2 -23h-733l-64 489h-644l-277 -481q-4 -8 -13 -8h-20zM307 510h630l-117 901q-5 -14 -10.5 -26t-14.5 -27z" />
<glyph unicode="&#xc7;" horiz-adv-x="1472" d="M158 717q0 164 49.5 299t140 232t217 149.5t279.5 52.5q78 0 140.5 -10t116.5 -31t102.5 -53t99.5 -74l-5 -6q-3 -4 -8 -4q-7 0 -21.5 11.5t-37.5 29t-57 38t-81 38t-109 29.5t-140 12q-145 0 -266.5 -50t-209 -142.5t-137 -224.5t-49.5 -296q0 -167 49 -299t135 -224.5 t203 -141t254 -48.5q87 0 156 12.5t125.5 36t105 57.5t97.5 78q5 5 8 6q4 0 7 -4l9 -8q-45 -44 -96.5 -80t-113 -62.5t-135.5 -41t-163 -14.5h-11l-31 -96q44 -7 80 -16t61.5 -24.5t40 -37.5t14.5 -54q0 -30 -12 -52t-33.5 -38t-50.5 -24.5t-64 -8.5q-42 0 -83 15t-64 39 l4 4q6 6 10 6t13.5 -7t25.5 -15.5t40 -15.5t60 -7q61 0 96 27t35 75q0 32 -15 52.5t-42 33.5t-62.5 19.5t-76.5 11.5l36 114q-138 5 -255 58t-201.5 147.5t-132 227.5t-47.5 299z" />
<glyph unicode="&#xc8;" horiz-adv-x="1228" d="M246 0v1434h837v-23h-813v-672h691v-22h-691v-694h815l-2 -23h-837zM430 1802h37q17 0 25.5 -3t17.5 -11l248 -213h-13q-9 0 -18 6z" />
<glyph unicode="&#xc9;" horiz-adv-x="1228" d="M246 0v1434h837v-23h-813v-672h691v-22h-691v-694h815l-2 -23h-837zM594 1575l248 213q9 8 17 11t26 3h37l-297 -221q-9 -6 -19 -6h-12z" />
<glyph unicode="&#xca;" horiz-adv-x="1228" d="M246 0v1434h837v-23h-813v-672h691v-22h-691v-694h815l-2 -23h-837zM426 1575l238 194h16l238 -194h-21q-5 0 -10 1.5t-10 6.5l-201 164l-4 4l-4 -4l-201 -164q-5 -5 -10 -6.5t-11 -1.5h-20z" />
<glyph unicode="&#xcb;" horiz-adv-x="1228" d="M246 0v1434h837v-23h-813v-672h691v-22h-691v-694h815l-2 -23h-837zM406 1704q0 24 16.5 40.5t40.5 16.5q22 0 39.5 -17t17.5 -40q0 -22 -18 -38.5t-39 -16.5q-24 0 -40.5 16.5t-16.5 38.5zM823 1704q0 24 17 40.5t41 16.5q22 0 39.5 -17t17.5 -40q0 -22 -18 -38.5 t-39 -16.5q-24 0 -41 16.5t-17 38.5z" />
<glyph unicode="&#xcc;" horiz-adv-x="598" d="M59 1802h37q17 0 25.5 -3t17.5 -11l248 -213h-12q-9 0 -19 6zM287 0v1434h24v-1434h-24z" />
<glyph unicode="&#xcd;" horiz-adv-x="598" d="M223 1575l248 213q9 8 17.5 11t25.5 3h37l-297 -221q-9 -6 -18 -6h-13zM287 0v1434h24v-1434h-24z" />
<glyph unicode="&#xce;" horiz-adv-x="598" d="M55 1575l238 194h16l238 -194h-21q-5 0 -10 1.5t-10 6.5l-201 164l-4 4l-4 -4l-201 -164q-9 -8 -20 -8h-21zM287 0v1434h24v-1434h-24z" />
<glyph unicode="&#xcf;" horiz-adv-x="598" d="M35 1704q0 24 17 40.5t40 16.5q22 0 40 -17t18 -40q0 -22 -18 -38.5t-40 -16.5q-24 0 -40.5 16.5t-16.5 38.5zM287 0v1434h24v-1434h-24zM453 1704q0 24 16.5 40.5t40.5 16.5q22 0 39.5 -17t17.5 -40q0 -22 -18 -38.5t-39 -16.5q-24 0 -40.5 16.5t-16.5 38.5z" />
<glyph unicode="&#xd0;" horiz-adv-x="1609" d="M49 719v20h238v695h512q147 0 269 -48.5t209.5 -140.5t136 -225t48.5 -303t-48.5 -303t-136 -225.5t-209.5 -140.5t-269 -48h-512v719h-238zM311 20h488q141 0 258.5 46.5t201 135.5t130.5 218.5t47 296.5t-47 296.5t-130.5 218.5t-201 135t-258.5 46h-488v-674h434v-20 h-434v-699z" />
<glyph unicode="&#xd1;" horiz-adv-x="1548" d="M246 0v1434h8q9 0 14 -9l1015 -1381q-1 5 -1 11v11v1368h21v-1434h-7q-6 0 -11 7l-1020 1388q1 -6 1 -13v-12v-1370h-20zM592 1593q0 28 7.5 53t23 43.5t38 30t52.5 11.5q34 0 62.5 -18.5t55.5 -41t54 -41t57 -18.5q51 0 75.5 33.5t26.5 83.5h17q0 -28 -7 -53 t-21.5 -43.5t-37 -30t-53.5 -11.5q-33 0 -61.5 18.5t-56 41t-55 41t-56.5 18.5q-25 0 -44 -9t-31.5 -25t-19.5 -37.5t-8 -45.5h-18z" />
<glyph unicode="&#xd2;" horiz-adv-x="1632" d="M154 717q0 169 48.5 304.5t136 231t209 146.5t267.5 51q147 0 269 -50.5t209.5 -146t136.5 -231t49 -305.5t-49 -305.5t-136.5 -230t-209 -145t-269.5 -50.5q-146 0 -267.5 50.5t-209 145t-136 230t-48.5 305.5zM178 717q0 -167 47.5 -298.5t132 -223.5t201.5 -140.5 t256 -48.5q141 0 258.5 48.5t201.5 140.5t130.5 223.5t46.5 298.5t-46.5 299t-130.5 224t-201.5 141t-258.5 49q-139 0 -256 -49t-201.5 -141t-132 -224t-47.5 -299zM575 1802h37q17 0 25.5 -3t17.5 -11l248 -213h-12q-9 0 -19 6z" />
<glyph unicode="&#xd3;" horiz-adv-x="1632" d="M154 717q0 169 48.5 304.5t136 231t209 146.5t267.5 51q147 0 269 -50.5t209.5 -146t136.5 -231t49 -305.5t-49 -305.5t-136.5 -230t-209 -145t-269.5 -50.5q-146 0 -267.5 50.5t-209 145t-136 230t-48.5 305.5zM178 717q0 -167 47.5 -298.5t132 -223.5t201.5 -140.5 t256 -48.5q141 0 258.5 48.5t201.5 140.5t130.5 223.5t46.5 298.5t-46.5 299t-130.5 224t-201.5 141t-258.5 49q-139 0 -256 -49t-201.5 -141t-132 -224t-47.5 -299zM739 1575l248 213q9 8 17.5 11t25.5 3h37l-297 -221q-9 -6 -18 -6h-13z" />
<glyph unicode="&#xd4;" horiz-adv-x="1632" d="M154 717q0 169 48.5 304.5t136 231t209 146.5t267.5 51q147 0 269 -50.5t209.5 -146t136.5 -231t49 -305.5t-49 -305.5t-136.5 -230t-209 -145t-269.5 -50.5q-146 0 -267.5 50.5t-209 145t-136 230t-48.5 305.5zM178 717q0 -167 47.5 -298.5t132 -223.5t201.5 -140.5 t256 -48.5q141 0 258.5 48.5t201.5 140.5t130.5 223.5t46.5 298.5t-46.5 299t-130.5 224t-201.5 141t-258.5 49q-139 0 -256 -49t-201.5 -141t-132 -224t-47.5 -299zM571 1575l238 194h16l238 -194h-21q-5 0 -10 1.5t-10 6.5l-201 164l-4 4l-4 -4l-201 -164q-9 -8 -20 -8 h-21z" />
<glyph unicode="&#xd5;" horiz-adv-x="1632" d="M154 717q0 169 48.5 304.5t136 231t209 146.5t267.5 51q147 0 269 -50.5t209.5 -146t136.5 -231t49 -305.5t-49 -305.5t-136.5 -230t-209 -145t-269.5 -50.5q-146 0 -267.5 50.5t-209 145t-136 230t-48.5 305.5zM178 717q0 -167 47.5 -298.5t132 -223.5t201.5 -140.5 t256 -48.5q141 0 258.5 48.5t201.5 140.5t130.5 223.5t46.5 298.5t-46.5 299t-130.5 224t-201.5 141t-258.5 49q-139 0 -256 -49t-201.5 -141t-132 -224t-47.5 -299zM588 1595q0 28 7.5 53t23 43.5t38 30t52.5 11.5q34 0 62.5 -18.5t55.5 -41t54 -41t57 -18.5 q51 0 75.5 33.5t26.5 83.5h17q0 -28 -7.5 -53t-21.5 -43.5t-36.5 -30t-53.5 -11.5q-33 0 -61.5 18.5t-56 41t-55 41t-56.5 18.5q-25 0 -44 -9t-31.5 -25t-19.5 -37.5t-8 -45.5h-18z" />
<glyph unicode="&#xd6;" horiz-adv-x="1632" d="M154 717q0 169 48.5 304.5t136 231t209 146.5t267.5 51q147 0 269 -50.5t209.5 -146t136.5 -231t49 -305.5t-49 -305.5t-136.5 -230t-209 -145t-269.5 -50.5q-146 0 -267.5 50.5t-209 145t-136 230t-48.5 305.5zM178 717q0 -167 47.5 -298.5t132 -223.5t201.5 -140.5 t256 -48.5q141 0 258.5 48.5t201.5 140.5t130.5 223.5t46.5 298.5t-46.5 299t-130.5 224t-201.5 141t-258.5 49q-139 0 -256 -49t-201.5 -141t-132 -224t-47.5 -299zM551 1704q0 24 17 40.5t40 16.5q22 0 40 -17t18 -40q0 -22 -18 -38.5t-40 -16.5q-24 0 -40.5 16.5 t-16.5 38.5zM969 1704q0 24 16.5 40.5t40.5 16.5q22 0 39.5 -17t17.5 -40q0 -22 -17.5 -38.5t-39.5 -16.5q-24 0 -40.5 16.5t-16.5 38.5z" />
<glyph unicode="&#xd7;" d="M180 287l399 399l-399 397l17 17l397 -399l395 397l17 -17l-397 -395l397 -397l-15 -15l-397 397l-399 -399z" />
<glyph unicode="&#xd8;" horiz-adv-x="1632" d="M154 717q0 169 48.5 304.5t136 231t209 146.5t267.5 51q129 0 238 -39t194 -113l142 189q5 6 8.5 9t11.5 3h16l-161 -216q102 -96 158.5 -239t56.5 -327q0 -170 -49 -305.5t-136.5 -230t-209 -145t-269.5 -50.5q-124 0 -230 35.5t-190 105.5l-164 -219q-9 -12 -22 -12 h-14l184 245q-106 95 -165.5 240.5t-59.5 335.5zM178 717q0 -184 56.5 -324.5t157.5 -232.5l841 1120q-82 74 -187.5 112t-230.5 38q-139 0 -256 -49t-201.5 -141t-132 -224t-47.5 -299zM410 145q81 -69 183 -104t222 -35q141 0 258.5 48.5t201.5 140.5t130.5 223.5 t46.5 298.5q0 179 -53 316.5t-150 231.5z" />
<glyph unicode="&#xd9;" horiz-adv-x="1507" d="M236 532v902h24v-899q0 -110 34 -207t97.5 -169t155 -113.5t207.5 -41.5t207.5 41.5t155 113t97 168t33.5 205.5v902h25v-902q0 -114 -36 -214t-103.5 -174.5t-163.5 -118t-215 -43.5q-120 0 -216 43.5t-163.5 118t-103 174.5t-35.5 214zM512 1802h37q17 0 25.5 -3 t17.5 -11l248 -213h-13q-9 0 -18 6z" />
<glyph unicode="&#xda;" horiz-adv-x="1507" d="M236 532v902h24v-899q0 -110 34 -207t97.5 -169t155 -113.5t207.5 -41.5t207.5 41.5t155 113t97 168t33.5 205.5v902h25v-902q0 -114 -36 -214t-103.5 -174.5t-163.5 -118t-215 -43.5q-120 0 -216 43.5t-163.5 118t-103 174.5t-35.5 214zM676 1575l248 213q9 8 17 11 t26 3h37l-297 -221q-9 -6 -19 -6h-12z" />
<glyph unicode="&#xdb;" horiz-adv-x="1507" d="M236 532v902h24v-899q0 -110 34 -207t97.5 -169t155 -113.5t207.5 -41.5t207.5 41.5t155 113t97 168t33.5 205.5v902h25v-902q0 -114 -36 -214t-103.5 -174.5t-163.5 -118t-215 -43.5q-120 0 -216 43.5t-163.5 118t-103 174.5t-35.5 214zM508 1575l237 194h17l237 -194 h-20q-5 0 -10 1.5t-11 6.5l-200 164l-4 4l-4 -4l-201 -164q-9 -8 -21 -8h-20z" />
<glyph unicode="&#xdc;" horiz-adv-x="1507" d="M236 532v902h24v-899q0 -110 34 -207t97.5 -169t155 -113.5t207.5 -41.5t207.5 41.5t155 113t97 168t33.5 205.5v902h25v-902q0 -114 -36 -214t-103.5 -174.5t-163.5 -118t-215 -43.5q-120 0 -216 43.5t-163.5 118t-103 174.5t-35.5 214zM487 1704q0 24 17 40.5t41 16.5 q22 0 39.5 -17t17.5 -40q0 -22 -18 -38.5t-39 -16.5q-24 0 -41 16.5t-17 38.5zM905 1704q0 24 17 40.5t41 16.5q22 0 39.5 -17t17.5 -40q0 -22 -18 -38.5t-39 -16.5q-24 0 -41 16.5t-17 38.5z" />
<glyph unicode="&#xdd;" horiz-adv-x="1175" d="M41 1434h20q9 0 15 -9l482 -747q8 -13 16 -25t14 -24q5 12 13 24t16 25l483 747q5 8 14 9h21l-535 -825v-609h-25v609zM510 1575l248 213q9 8 17 11t26 3h37l-297 -221q-9 -6 -19 -6h-12z" />
<glyph unicode="&#xde;" horiz-adv-x="1185" d="M287 0v1434h24v-310h299q234 0 360 -101t126 -308q0 -89 -35.5 -164.5t-100 -129.5t-153.5 -85t-197 -31h-299v-305h-24zM311 326h299q105 0 190.5 30t145.5 83t92.5 123.5t32.5 152.5q0 191 -115 290t-346 99h-299v-778z" />
<glyph unicode="&#xdf;" horiz-adv-x="1132" d="M215 0v1034q0 101 32.5 178.5t88 130t131 79t162.5 26.5q72 0 131 -21.5t101.5 -58t65.5 -83.5t23 -97q0 -67 -26 -115.5t-65 -87.5t-85 -70t-85 -62t-65 -64.5t-26 -75.5t18 -69.5t47.5 -46.5t67.5 -33t78 -29t78 -33.5t67.5 -47.5t47.5 -70.5t18 -102.5t-22 -115.5 t-64 -94.5t-103 -63.5t-139 -23.5q-54 0 -96.5 8.5t-79 24t-67.5 38t-62 49.5l6 7q3 3 5 4.5t8 1.5q8 0 26.5 -17.5t51.5 -39t83.5 -39t124.5 -17.5t131 21.5t95.5 59t58.5 87t20 107.5q0 59 -17.5 99t-47.5 67t-68 44.5t-78 32.5t-77.5 29t-67.5 34.5t-48 51t-18 76.5 q0 45 26.5 80t66 67t85.5 63t85.5 69t65.5 85.5t26 112.5q0 31 -15.5 72t-51 77.5t-93 62t-141.5 25.5q-76 0 -146 -22t-124 -69.5t-86.5 -121.5t-32.5 -180v-1034h-25z" />
<glyph unicode="&#xe0;" horiz-adv-x="960" d="M123 236q0 68 39.5 121.5t121 91t205 59.5t293.5 27v129q0 79 -17 141t-51 105t-85 66t-119 23q-53 0 -96 -11t-77 -27.5t-59 -36t-43.5 -36t-29.5 -27.5t-17 -11q-4 0 -10 6l-4 4q74 78 153 119t183 41q77 0 132.5 -24.5t92.5 -70.5t54.5 -112.5t17.5 -148.5v-664h-4 q-14 0 -15 16l-6 163q-43 -45 -86 -81.5t-91 -61.5t-103.5 -38.5t-122.5 -13.5q-45 0 -90.5 13.5t-82.5 44t-60 78t-23 116.5zM147 236q0 -60 20 -104t52.5 -72t74 -42t85.5 -14q71 0 128 16.5t105 44t89.5 64t80.5 76.5v309q-323 -10 -479 -80t-156 -198zM344 1450h27 q17 0 25 -4t18 -19l168 -241h-15q-11 0 -16 8z" />
<glyph unicode="&#xe1;" horiz-adv-x="960" d="M123 236q0 68 39.5 121.5t121 91t205 59.5t293.5 27v129q0 79 -17 141t-51 105t-85 66t-119 23q-53 0 -96 -11t-77 -27.5t-59 -36t-43.5 -36t-29.5 -27.5t-17 -11q-4 0 -10 6l-4 4q74 78 153 119t183 41q77 0 132.5 -24.5t92.5 -70.5t54.5 -112.5t17.5 -148.5v-664h-4 q-14 0 -15 16l-6 163q-43 -45 -86 -81.5t-91 -61.5t-103.5 -38.5t-122.5 -13.5q-45 0 -90.5 13.5t-82.5 44t-60 78t-23 116.5zM147 236q0 -60 20 -104t52.5 -72t74 -42t85.5 -14q71 0 128 16.5t105 44t89.5 64t80.5 76.5v309q-323 -10 -479 -80t-156 -198zM434 1186l168 241 q9 14 17.5 18.5t25.5 4.5h27l-207 -256q-7 -8 -16 -8h-15z" />
<glyph unicode="&#xe2;" horiz-adv-x="960" d="M123 236q0 68 39.5 121.5t121 91t205 59.5t293.5 27v129q0 79 -17 141t-51 105t-85 66t-119 23q-53 0 -96 -11t-77 -27.5t-59 -36t-43.5 -36t-29.5 -27.5t-17 -11q-4 0 -10 6l-4 4q74 78 153 119t183 41q77 0 132.5 -24.5t92.5 -70.5t54.5 -112.5t17.5 -148.5v-664h-4 q-14 0 -15 16l-6 163q-43 -45 -86 -81.5t-91 -61.5t-103.5 -38.5t-122.5 -13.5q-45 0 -90.5 13.5t-82.5 44t-60 78t-23 116.5zM147 236q0 -60 20 -104t52.5 -72t74 -42t85.5 -14q71 0 128 16.5t105 44t89.5 64t80.5 76.5v309q-323 -10 -479 -80t-156 -198zM274 1198l218 236 h16l217 -236h-18q-8 0 -17 8l-184 201l-6 6l-6 -6l-185 -201q-3 -3 -7 -5.5t-9 -2.5h-19z" />
<glyph unicode="&#xe3;" horiz-adv-x="960" d="M123 236q0 68 39.5 121.5t121 91t205 59.5t293.5 27v129q0 79 -17 141t-51 105t-85 66t-119 23q-53 0 -96 -11t-77 -27.5t-59 -36t-43.5 -36t-29.5 -27.5t-17 -11q-4 0 -10 6l-4 4q74 78 153 119t183 41q77 0 132.5 -24.5t92.5 -70.5t54.5 -112.5t17.5 -148.5v-664h-4 q-14 0 -15 16l-6 163q-43 -45 -86 -81.5t-91 -61.5t-103.5 -38.5t-122.5 -13.5q-45 0 -90.5 13.5t-82.5 44t-60 78t-23 116.5zM147 236q0 -60 20 -104t52.5 -72t74 -42t85.5 -14q71 0 128 16.5t105 44t89.5 64t80.5 76.5v309q-323 -10 -479 -80t-156 -198zM270 1253 q0 28 8 53t23 43.5t37.5 30t52.5 11.5q34 0 62.5 -18.5t56 -41t54.5 -41t57 -18.5q51 0 75.5 33.5t26.5 83.5h16q0 -28 -7 -53t-21.5 -43.5t-37 -30t-52.5 -11.5q-33 0 -62 18.5t-56.5 41t-54.5 41t-57 18.5q-25 0 -43.5 -9t-31.5 -25t-19.5 -37.5t-7.5 -45.5h-19z" />
<glyph unicode="&#xe4;" horiz-adv-x="960" d="M123 236q0 68 39.5 121.5t121 91t205 59.5t293.5 27v129q0 79 -17 141t-51 105t-85 66t-119 23q-53 0 -96 -11t-77 -27.5t-59 -36t-43.5 -36t-29.5 -27.5t-17 -11q-4 0 -10 6l-4 4q74 78 153 119t183 41q77 0 132.5 -24.5t92.5 -70.5t54.5 -112.5t17.5 -148.5v-664h-4 q-14 0 -15 16l-6 163q-43 -45 -86 -81.5t-91 -61.5t-103.5 -38.5t-122.5 -13.5q-45 0 -90.5 13.5t-82.5 44t-60 78t-23 116.5zM147 236q0 -60 20 -104t52.5 -72t74 -42t85.5 -14q71 0 128 16.5t105 44t89.5 64t80.5 76.5v309q-323 -10 -479 -80t-156 -198zM274 1311 q0 24 17 40.5t41 16.5q22 0 39.5 -17t17.5 -40q0 -22 -18 -39t-39 -17q-24 0 -41 17t-17 39zM610 1311q0 24 17 40.5t41 16.5q22 0 39.5 -17t17.5 -40q0 -22 -18 -39t-39 -17q-24 0 -41 17t-17 39z" />
<glyph unicode="&#xe5;" horiz-adv-x="960" d="M123 236q0 68 39.5 121.5t121 91t205 59.5t293.5 27v129q0 79 -17 141t-51 105t-85 66t-119 23q-53 0 -96 -11t-77 -27.5t-59 -36t-43.5 -36t-29.5 -27.5t-17 -11q-4 0 -10 6l-4 4q74 78 153 119t183 41q77 0 132.5 -24.5t92.5 -70.5t54.5 -112.5t17.5 -148.5v-664h-4 q-14 0 -15 16l-6 163q-43 -45 -86 -81.5t-91 -61.5t-103.5 -38.5t-122.5 -13.5q-45 0 -90.5 13.5t-82.5 44t-60 78t-23 116.5zM147 236q0 -60 20 -104t52.5 -72t74 -42t85.5 -14q71 0 128 16.5t105 44t89.5 64t80.5 76.5v309q-323 -10 -479 -80t-156 -198zM348 1321 q0 32 12 58.5t32.5 46.5t48 31t59.5 11t59.5 -11t48 -31t32 -46.5t11.5 -58.5t-11.5 -58.5t-32 -46.5t-48.5 -31t-59 -11q-32 0 -59.5 11t-48 31t-32.5 46.5t-12 58.5zM371 1321q0 -28 9.5 -51.5t27 -41t41 -27t51.5 -9.5t51 9.5t40.5 27t27.5 41t10 51.5t-10 51.5t-27.5 41 t-41 27t-50.5 9.5q-28 0 -51.5 -9.5t-41 -27t-27 -41t-9.5 -51.5z" />
<glyph unicode="&#xe6;" horiz-adv-x="1628" d="M123 256q0 68 39.5 124.5t121 98.5t205 67t293.5 29v89q0 79 -17 141t-51 105t-85 66t-119 23q-53 0 -96 -11t-77 -27.5t-59 -36t-43.5 -36t-29.5 -27.5t-17 -11q-4 0 -10 6l-4 4q74 78 153 119t183 41q72 0 126 -24t90.5 -68.5t55 -108.5t19.5 -144q15 79 48 142.5 t81 108.5t110.5 69.5t139.5 24.5q72 0 133.5 -28.5t107.5 -85.5t72.5 -142t26.5 -197q0 -10 -11 -10h-703q-1 -8 -1 -17v-18q0 -125 27 -220.5t76.5 -160.5t120 -99t155.5 -34q75 0 129.5 18.5t91.5 41t57 41t25 18.5q4 0 8 -4l4 -4q-15 -22 -46.5 -45t-73.5 -42.5 t-92 -31.5t-103 -12q-156 0 -254.5 95.5t-129.5 272.5q-3 -71 -22.5 -126t-50.5 -96.5t-70 -70t-80.5 -46.5t-83.5 -25.5t-79 -7.5q-58 0 -111 13.5t-93 46t-63.5 84.5t-23.5 128zM147 256q0 -68 20.5 -115.5t56 -78t84 -44.5t106.5 -14q76 0 143 26t117 75.5t79 118.5 t29 155v176q-162 -5 -281 -28t-197.5 -62t-117.5 -91.5t-39 -117.5zM806 575h693q0 105 -24.5 185t-67.5 133t-101 79.5t-124 26.5q-84 0 -151 -30.5t-115 -86.5t-76 -134t-34 -173z" />
<glyph unicode="&#xe7;" horiz-adv-x="911" d="M102 502q0 117 30 212.5t86 163t137.5 105t185.5 37.5q91 0 162 -29t122 -76l-6 -6q-4 -4 -8 -4q-6 0 -23 15t-49 32.5t-81 32t-117 14.5q-97 0 -174 -34.5t-130.5 -99t-81.5 -157t-28 -206.5q0 -119 28 -210.5t80.5 -154.5t125.5 -96t163 -33q80 0 135.5 18.5t91 41 t54 41t24.5 18.5q4 0 9 -4l4 -4q-15 -23 -45 -46t-70.5 -42t-91 -31t-109.5 -12l-31 -100q44 -7 79.5 -16t61.5 -24.5t40 -37.5t14 -54q0 -30 -11.5 -52t-33 -38t-51 -24.5t-64.5 -8.5q-42 0 -82.5 15t-64.5 39l4 4q6 6 10 6t13.5 -7t26 -15.5t40.5 -15.5t60 -7q61 0 96 27 t35 75q0 32 -15.5 52.5t-42 33.5t-62.5 19.5t-77 11.5l37 118q-93 3 -168.5 38.5t-128 101.5t-81 160t-28.5 213z" />
<glyph unicode="&#xe8;" horiz-adv-x="1024" d="M102 522q0 111 30 202.5t86 157t137.5 102t185.5 36.5q79 0 147.5 -28t119 -83.5t79 -136t28.5 -184.5q0 -5 -3.5 -7.5t-8.5 -2.5h-774q-2 -14 -2 -28v-28q0 -125 29.5 -220.5t84.5 -160.5t132.5 -99t171.5 -34q85 0 146 18.5t101.5 41t61 41t27.5 18.5q4 0 8 -4l4 -4 q-17 -22 -51.5 -45t-81 -42.5t-102 -31.5t-113.5 -12q-103 0 -185 36t-139 105t-88 168t-31 225zM130 596h763q0 97 -26.5 172.5t-74.5 126.5t-112.5 77.5t-138.5 26.5q-90 0 -162.5 -29t-124.5 -81.5t-83.5 -127.5t-40.5 -165zM383 1450h27q17 0 25 -4t18 -19l168 -241h-15 q-11 0 -16 8z" />
<glyph unicode="&#xe9;" horiz-adv-x="1024" d="M102 522q0 111 30 202.5t86 157t137.5 102t185.5 36.5q79 0 147.5 -28t119 -83.5t79 -136t28.5 -184.5q0 -5 -3.5 -7.5t-8.5 -2.5h-774q-2 -14 -2 -28v-28q0 -125 29.5 -220.5t84.5 -160.5t132.5 -99t171.5 -34q85 0 146 18.5t101.5 41t61 41t27.5 18.5q4 0 8 -4l4 -4 q-17 -22 -51.5 -45t-81 -42.5t-102 -31.5t-113.5 -12q-103 0 -185 36t-139 105t-88 168t-31 225zM130 596h763q0 97 -26.5 172.5t-74.5 126.5t-112.5 77.5t-138.5 26.5q-90 0 -162.5 -29t-124.5 -81.5t-83.5 -127.5t-40.5 -165zM473 1186l168 241q9 14 17.5 18.5t25.5 4.5 h27l-207 -256q-7 -8 -16 -8h-15z" />
<glyph unicode="&#xea;" horiz-adv-x="1024" d="M102 522q0 111 30 202.5t86 157t137.5 102t185.5 36.5q79 0 147.5 -28t119 -83.5t79 -136t28.5 -184.5q0 -5 -3.5 -7.5t-8.5 -2.5h-774q-2 -14 -2 -28v-28q0 -125 29.5 -220.5t84.5 -160.5t132.5 -99t171.5 -34q85 0 146 18.5t101.5 41t61 41t27.5 18.5q4 0 8 -4l4 -4 q-17 -22 -51.5 -45t-81 -42.5t-102 -31.5t-113.5 -12q-103 0 -185 36t-139 105t-88 168t-31 225zM130 596h763q0 97 -26.5 172.5t-74.5 126.5t-112.5 77.5t-138.5 26.5q-90 0 -162.5 -29t-124.5 -81.5t-83.5 -127.5t-40.5 -165zM313 1198l218 236h16l217 -236h-18 q-8 0 -17 8l-184 201l-6 6l-6 -6l-185 -201q-3 -3 -7 -5.5t-9 -2.5h-19z" />
<glyph unicode="&#xeb;" horiz-adv-x="1024" d="M102 522q0 111 30 202.5t86 157t137.5 102t185.5 36.5q79 0 147.5 -28t119 -83.5t79 -136t28.5 -184.5q0 -5 -3.5 -7.5t-8.5 -2.5h-774q-2 -14 -2 -28v-28q0 -125 29.5 -220.5t84.5 -160.5t132.5 -99t171.5 -34q85 0 146 18.5t101.5 41t61 41t27.5 18.5q4 0 8 -4l4 -4 q-17 -22 -51.5 -45t-81 -42.5t-102 -31.5t-113.5 -12q-103 0 -185 36t-139 105t-88 168t-31 225zM130 596h763q0 97 -26.5 172.5t-74.5 126.5t-112.5 77.5t-138.5 26.5q-90 0 -162.5 -29t-124.5 -81.5t-83.5 -127.5t-40.5 -165zM313 1311q0 24 17 40.5t41 16.5 q22 0 39.5 -17t17.5 -40q0 -22 -18 -39t-39 -17q-24 0 -41 17t-17 39zM649 1311q0 24 17 40.5t41 16.5q22 0 39.5 -17t17.5 -40q0 -22 -18 -39t-39 -17q-24 0 -41 17t-17 39z" />
<glyph unicode="&#xec;" horiz-adv-x="454" d="M215 0v1004h25v-1004h-25zM73 1450h27q17 0 25 -4t18 -19l168 -241h-15q-11 0 -16 8z" />
<glyph unicode="&#xed;" horiz-adv-x="454" d="M215 0v1004h25v-1004h-25zM163 1186l168 241q9 14 17.5 18.5t25.5 4.5h27l-207 -256q-7 -8 -16 -8h-15z" />
<glyph unicode="&#xee;" horiz-adv-x="454" d="M215 0v1004h25v-1004h-25zM3 1198l218 236h16l217 -236h-18q-8 0 -17 8l-184 201l-6 6l-6 -6l-185 -201q-3 -3 -7 -5.5t-9 -2.5h-19z" />
<glyph unicode="&#xef;" horiz-adv-x="454" d="M215 0v1004h25v-1004h-25zM3 1311q0 24 17 40.5t41 16.5q22 0 39.5 -17t17.5 -40q0 -22 -18 -39t-39 -17q-24 0 -41 17t-17 39zM339 1311q0 24 17 40.5t41 16.5q22 0 39.5 -17t17.5 -40q0 -22 -18 -39t-39 -17q-24 0 -41 17t-17 39z" />
<glyph unicode="&#xf0;" horiz-adv-x="1067" d="M102 457q0 100 28.5 188t83.5 153t136 102.5t187 37.5q56 0 117.5 -17.5t118 -55t104 -97t73.5 -145.5q-2 119 -24.5 216t-62 175.5t-93.5 137.5t-119 103l-149 -159l-5 4q-5 3 -5 10q0 4 4 8l140 149q-74 46 -155 74.5t-166 42.5q-12 2 -12 9v5q0 2 1 3l1 4 q88 -14 175.5 -43.5t167.5 -81.5l140 152l5 -5q3 -3 3 -9q0 -5 -6 -12l-125 -137q66 -45 121 -106t96 -142.5t64 -184t23 -228.5q0 -137 -27 -250.5t-81 -195t-137.5 -127t-197.5 -45.5q-87 0 -163.5 32.5t-134.5 93t-92 147t-34 194.5zM127 457q0 -105 32 -188.5 t87.5 -140.5t127.5 -87.5t152 -30.5q103 0 180.5 42t130 116.5t80 178t30.5 225.5q-14 59 -46.5 120.5t-83 111.5t-120.5 82t-160 32q-101 0 -178 -35.5t-128.5 -97.5t-77.5 -146.5t-26 -181.5z" />
<glyph unicode="&#xf1;" horiz-adv-x="1081" d="M180 0v1004h6q14 0 15 -17l3 -193q35 51 78.5 93t93.5 71.5t105.5 45.5t114.5 16q167 0 249.5 -99.5t82.5 -277.5v-643h-25v643q0 84 -18.5 150t-56.5 112t-96 70t-136 24q-118 0 -217 -63t-174 -173v-763h-25zM319 1253q0 28 8 53t23 43.5t37.5 30t52.5 11.5 q34 0 62.5 -18.5t56 -41t54.5 -41t57 -18.5q51 0 75.5 33.5t26.5 83.5h16q0 -28 -7 -53t-21.5 -43.5t-37 -30t-52.5 -11.5q-33 0 -62 18.5t-56.5 41t-54.5 41t-57 18.5q-25 0 -43.5 -9t-31.5 -25t-19.5 -37.5t-7.5 -45.5h-19z" />
<glyph unicode="&#xf2;" horiz-adv-x="1081" d="M102 502q0 117 29 212.5t84.5 163t137 105t188.5 37.5q105 0 187 -37.5t138 -105t84.5 -163.5t28.5 -212q0 -117 -28.5 -211.5t-84.5 -162.5t-138 -104t-187 -36q-106 0 -188 36t-137.5 104t-84.5 162.5t-29 211.5zM127 502q0 -111 26 -202t78 -155.5t129 -100.5t181 -36 q102 0 180 36t129.5 100.5t77.5 155.5t26 202t-26 202.5t-77.5 157t-129.5 101.5t-180 36q-103 0 -180.5 -36t-129.5 -101.5t-78 -157t-26 -202.5zM387 1450h27q17 0 25 -4t18 -19l168 -241h-15q-11 0 -16 8z" />
<glyph unicode="&#xf3;" horiz-adv-x="1081" d="M102 502q0 117 29 212.5t84.5 163t137 105t188.5 37.5q105 0 187 -37.5t138 -105t84.5 -163.5t28.5 -212q0 -117 -28.5 -211.5t-84.5 -162.5t-138 -104t-187 -36q-106 0 -188 36t-137.5 104t-84.5 162.5t-29 211.5zM127 502q0 -111 26 -202t78 -155.5t129 -100.5t181 -36 q102 0 180 36t129.5 100.5t77.5 155.5t26 202t-26 202.5t-77.5 157t-129.5 101.5t-180 36q-103 0 -180.5 -36t-129.5 -101.5t-78 -157t-26 -202.5zM477 1186l168 241q9 14 17.5 18.5t25.5 4.5h27l-207 -256q-7 -8 -16 -8h-15z" />
<glyph unicode="&#xf4;" horiz-adv-x="1081" d="M102 502q0 117 29 212.5t84.5 163t137 105t188.5 37.5q105 0 187 -37.5t138 -105t84.5 -163.5t28.5 -212q0 -117 -28.5 -211.5t-84.5 -162.5t-138 -104t-187 -36q-106 0 -188 36t-137.5 104t-84.5 162.5t-29 211.5zM127 502q0 -111 26 -202t78 -155.5t129 -100.5t181 -36 q102 0 180 36t129.5 100.5t77.5 155.5t26 202t-26 202.5t-77.5 157t-129.5 101.5t-180 36q-103 0 -180.5 -36t-129.5 -101.5t-78 -157t-26 -202.5zM317 1198l218 236h16l217 -236h-18q-8 0 -17 8l-184 201l-6 6l-6 -6l-185 -201q-3 -3 -7 -5.5t-9 -2.5h-19z" />
<glyph unicode="&#xf5;" horiz-adv-x="1081" d="M102 502q0 117 29 212.5t84.5 163t137 105t188.5 37.5q105 0 187 -37.5t138 -105t84.5 -163.5t28.5 -212q0 -117 -28.5 -211.5t-84.5 -162.5t-138 -104t-187 -36q-106 0 -188 36t-137.5 104t-84.5 162.5t-29 211.5zM127 502q0 -111 26 -202t78 -155.5t129 -100.5t181 -36 q102 0 180 36t129.5 100.5t77.5 155.5t26 202t-26 202.5t-77.5 157t-129.5 101.5t-180 36q-103 0 -180.5 -36t-129.5 -101.5t-78 -157t-26 -202.5zM313 1253q0 28 8 53t23 43.5t37.5 30t52.5 11.5q34 0 62.5 -18.5t56 -41t54.5 -41t57 -18.5q51 0 75.5 33.5t26.5 83.5h16 q0 -28 -7 -53t-21.5 -43.5t-37 -30t-52.5 -11.5q-33 0 -62 18.5t-56.5 41t-54.5 41t-57 18.5q-25 0 -43.5 -9t-31.5 -25t-19.5 -37.5t-7.5 -45.5h-19z" />
<glyph unicode="&#xf6;" horiz-adv-x="1081" d="M102 502q0 117 29 212.5t84.5 163t137 105t188.5 37.5q105 0 187 -37.5t138 -105t84.5 -163.5t28.5 -212q0 -117 -28.5 -211.5t-84.5 -162.5t-138 -104t-187 -36q-106 0 -188 36t-137.5 104t-84.5 162.5t-29 211.5zM127 502q0 -111 26 -202t78 -155.5t129 -100.5t181 -36 q102 0 180 36t129.5 100.5t77.5 155.5t26 202t-26 202.5t-77.5 157t-129.5 101.5t-180 36q-103 0 -180.5 -36t-129.5 -101.5t-78 -157t-26 -202.5zM317 1311q0 24 17 40.5t41 16.5q22 0 39.5 -17t17.5 -40q0 -22 -18 -39t-39 -17q-24 0 -41 17t-17 39zM653 1311 q0 24 17 40.5t41 16.5q22 0 39.5 -17t17.5 -40q0 -22 -18 -39t-39 -17q-24 0 -41 17t-17 39z" />
<glyph unicode="&#xf7;" d="M121 676v20h944v-20h-944zM526 319q0 28 19 48t47 20t47.5 -20t19.5 -48t-19.5 -46.5t-47.5 -18.5t-47 18.5t-19 46.5zM526 1049q0 28 19 47.5t47 19.5t47.5 -20t19.5 -47q0 -28 -19.5 -47t-47.5 -19t-47 19t-19 47z" />
<glyph unicode="&#xf8;" horiz-adv-x="1081" d="M102 502q0 117 29 212.5t84.5 163t137 105t188.5 37.5q97 0 173 -31t131 -89l107 144q5 6 9 9.5t12 3.5h16l-129 -173q58 -69 88.5 -165t30.5 -217q0 -117 -28.5 -211.5t-84.5 -162.5t-138 -104t-187 -36q-171 0 -281 94l-108 -145q-9 -12 -23 -13h-14l129 173 q-70 68 -106 170.5t-36 234.5zM127 502q0 -125 33 -223.5t97 -163.5l574 768q-52 55 -124 85.5t-166 30.5q-103 0 -180.5 -36t-129.5 -101.5t-78 -157t-26 -202.5zM273 99q50 -45 117 -68t151 -23q102 0 180 36t129.5 100.5t77.5 155.5t26 202q0 113 -27 205.5t-81 157.5z " />
<glyph unicode="&#xf9;" horiz-adv-x="1081" d="M154 360v644h24v-644q0 -84 18.5 -150t57 -112t96 -70t135.5 -24q118 0 217 62.5t175 173.5v764h24v-1004h-6q-14 0 -14 16l-4 193q-36 -51 -79 -93t-93.5 -71.5t-105.5 -45t-114 -15.5q-168 0 -249.5 99t-81.5 277zM379 1450h27q17 0 25 -4t18 -19l168 -241h-15 q-11 0 -16 8z" />
<glyph unicode="&#xfa;" horiz-adv-x="1081" d="M154 360v644h24v-644q0 -84 18.5 -150t57 -112t96 -70t135.5 -24q118 0 217 62.5t175 173.5v764h24v-1004h-6q-14 0 -14 16l-4 193q-36 -51 -79 -93t-93.5 -71.5t-105.5 -45t-114 -15.5q-168 0 -249.5 99t-81.5 277zM469 1186l168 241q9 14 17.5 18.5t25.5 4.5h27 l-207 -256q-7 -8 -16 -8h-15z" />
<glyph unicode="&#xfb;" horiz-adv-x="1081" d="M154 360v644h24v-644q0 -84 18.5 -150t57 -112t96 -70t135.5 -24q118 0 217 62.5t175 173.5v764h24v-1004h-6q-14 0 -14 16l-4 193q-36 -51 -79 -93t-93.5 -71.5t-105.5 -45t-114 -15.5q-168 0 -249.5 99t-81.5 277zM309 1198l218 236h16l217 -236h-18q-8 0 -17 8 l-184 201l-6 6l-6 -6l-185 -201q-3 -3 -7 -5.5t-9 -2.5h-19z" />
<glyph unicode="&#xfc;" horiz-adv-x="1081" d="M154 360v644h24v-644q0 -84 18.5 -150t57 -112t96 -70t135.5 -24q118 0 217 62.5t175 173.5v764h24v-1004h-6q-14 0 -14 16l-4 193q-36 -51 -79 -93t-93.5 -71.5t-105.5 -45t-114 -15.5q-168 0 -249.5 99t-81.5 277zM309 1311q0 24 17 40.5t41 16.5q22 0 39.5 -17 t17.5 -40q0 -22 -18 -39t-39 -17q-24 0 -41 17t-17 39zM645 1311q0 24 17 40.5t41 16.5q22 0 39.5 -17t17.5 -40q0 -22 -18 -39t-39 -17q-24 0 -41 17t-17 39z" />
<glyph unicode="&#xfd;" horiz-adv-x="952" d="M31 1004h14q8 0 13 -5t8 -10l399 -911q4 -9 7.5 -18.5t5.5 -19.5q2 10 5.5 19.5t8.5 18.5l399 911q7 14 18 15h15l-592 -1350q-3 -8 -9.5 -15.5t-15.5 -7.5h-14l172 386zM440 1186l168 241q9 14 17.5 18.5t25.5 4.5h27l-207 -256q-7 -8 -16 -8h-15z" />
<glyph unicode="&#xfe;" horiz-adv-x="1067" d="M180 -369v1844h25v-678q68 102 163.5 162.5t209.5 60.5q195 0 298 -125.5t103 -386.5q0 -110 -28 -204.5t-83.5 -164.5t-138 -110.5t-190.5 -40.5q-221 0 -334 179v-536h-25zM205 200q66 -105 146.5 -148.5t187.5 -43.5q105 0 183 38.5t129.5 106t77 158.5t25.5 197 q0 250 -95.5 370.5t-280.5 120.5q-112 0 -208 -62.5t-165 -172.5v-564z" />
<glyph unicode="&#xff;" horiz-adv-x="952" d="M31 1004h14q8 0 13 -5t8 -10l399 -911q4 -9 7.5 -18.5t5.5 -19.5q2 10 5.5 19.5t8.5 18.5l399 911q7 14 18 15h15l-592 -1350q-3 -8 -9.5 -15.5t-15.5 -7.5h-14l172 386zM280 1311q0 24 17 40.5t41 16.5q22 0 39.5 -17t17.5 -40q0 -22 -18 -39t-39 -17q-24 0 -41 17 t-17 39zM616 1311q0 24 17 40.5t41 16.5q22 0 39.5 -17t17.5 -40q0 -22 -18 -39t-39 -17q-24 0 -41 17t-17 39z" />
<glyph unicode="&#x104;" horiz-adv-x="1257" d="M20 0l598 1434h21l598 -1434q-20 -11 -46.5 -30t-49.5 -44.5t-38.5 -57.5t-15.5 -69q0 -57 39.5 -89t98.5 -32q33 0 56 7.5t38 15.5t24.5 15.5t14.5 7.5q4 0 8 -5l6 -6q-27 -27 -66.5 -41t-82.5 -14q-68 0 -113 36t-45 105q0 34 13.5 65t34.5 57t46.5 47t48.5 36 l-201 485h-756l-200 -479q-3 -10 -14 -10h-17zM259 510h739l-353 848q-5 11 -9 21t-7 21q-4 -11 -8 -21t-9 -21z" />
<glyph unicode="&#x105;" horiz-adv-x="960" d="M123 236q0 68 39.5 121.5t121 91t205 59.5t293.5 27v129q0 79 -17 141t-51 105t-85 66t-119 23q-53 0 -96 -11t-77 -27.5t-59 -36t-43.5 -36t-29.5 -27.5t-17 -11q-4 0 -10 6l-4 4q74 78 153 119t183 41q77 0 132.5 -24.5t92.5 -70.5t54.5 -112.5t17.5 -148.5v-664 q-20 -11 -46.5 -30t-49.5 -44.5t-38.5 -57.5t-15.5 -69q0 -57 39.5 -89t98.5 -32q33 0 55.5 7.5t38 15.5t25 15.5t14.5 7.5q4 0 8 -5l6 -6q-27 -27 -66.5 -41t-82.5 -14q-68 0 -113 36t-45 105q0 36 15 68.5t38 59t49.5 48t50.5 35.5l-6 169q-43 -45 -86 -81.5t-91 -61.5 t-103.5 -38.5t-122.5 -13.5q-45 0 -90.5 13.5t-82.5 44t-60 78t-23 116.5zM147 236q0 -60 20 -104t52.5 -72t74 -42t85.5 -14q71 0 128 16.5t105 44t89.5 64t80.5 76.5v309q-323 -10 -479 -80t-156 -198z" />
<glyph unicode="&#x106;" horiz-adv-x="1472" d="M158 717q0 164 49.5 299t140 232t217 149.5t279.5 52.5q78 0 140.5 -10t116.5 -31t102.5 -53t99.5 -74l-4 -5q-4 -5 -9 -5q-8 0 -22 11.5t-37 29t-56.5 38t-80.5 38t-109 29.5t-141 12q-145 0 -266.5 -50t-209 -142.5t-137 -224.5t-49.5 -296q0 -167 49 -299t135 -224.5 t203 -141t254 -48.5q87 0 156 12.5t125.5 36t105 57.5t97.5 78q5 5 8 6q4 0 7 -4l9 -8q-45 -44 -96.5 -80t-113 -62.5t-135.5 -41t-163 -14.5q-144 0 -266 50.5t-211 145.5t-138.5 231t-49.5 306zM796 1575l248 213q9 8 17 11t26 3h37l-297 -221q-9 -6 -19 -6h-12z" />
<glyph unicode="&#x107;" horiz-adv-x="911" d="M102 502q0 117 30 212.5t86 163t137.5 105t185.5 37.5q91 0 162 -29t122 -76l-6 -6q-4 -4 -8 -4q-6 0 -23 15t-49 32.5t-81 32t-117 14.5q-97 0 -174 -34.5t-130.5 -99t-81.5 -157t-28 -206.5q0 -119 28 -210.5t80.5 -154.5t125.5 -96t163 -33q80 0 135.5 18.5t91 41 t54 41t24.5 18.5q4 0 9 -4l4 -4q-15 -23 -45 -46t-71 -42t-92 -31t-110 -12q-97 0 -175 34.5t-132.5 100.5t-84.5 161.5t-30 217.5zM479 1186l168 241q9 14 17.5 18.5t25.5 4.5h27l-207 -256q-7 -8 -16 -8h-15z" />
<glyph unicode="&#x118;" horiz-adv-x="1286" d="M246 0v1434h837v-23h-813v-672h691v-22h-691v-694h815l-2 -23h-92q-20 -11 -46 -30t-49.5 -44.5t-38.5 -57.5t-15 -69q0 -57 39.5 -89t97.5 -32q33 0 56 7.5t38.5 15.5t24.5 15.5t14 7.5q4 0 8 -5l6 -6q-27 -27 -66.5 -41t-82.5 -14q-68 0 -113 36t-45 105 q0 33 12.5 62.5t32.5 55.5t44 47t47 36h-709z" />
<glyph unicode="&#x119;" horiz-adv-x="1024" d="M102 522q0 111 30 202.5t86 157t137.5 102t185.5 36.5q79 0 147.5 -28t119 -83.5t79 -136t28.5 -184.5q0 -5 -3.5 -7.5t-8.5 -2.5h-774q-2 -14 -2 -28v-28q0 -125 29.5 -220.5t84.5 -160.5t132.5 -99t171.5 -34q84 0 145.5 18.5t102.5 41t62.5 41t25.5 18.5t8 -4l4 -4 q-13 -17 -38.5 -35.5t-59 -35.5t-74.5 -31t-85 -21q-22 -12 -46.5 -31t-46 -44t-35.5 -56t-14 -66q0 -57 39 -89t98 -32q33 0 56 7.5t38 15.5t24.5 15.5t14.5 7.5q4 0 8 -5l6 -6q-27 -27 -66.5 -41t-82.5 -14q-68 0 -113 36t-45 105q0 31 11 58t28 51t39 44.5t44 37.5 q-11 -1 -23.5 -1.5t-24.5 -0.5q-103 0 -185 36t-139 105t-88 168t-31 225zM130 596h763q0 97 -26.5 172.5t-74.5 126.5t-112.5 77.5t-138.5 26.5q-90 0 -162.5 -29t-124.5 -81.5t-83.5 -127.5t-40.5 -165z" />
<glyph unicode="&#x131;" horiz-adv-x="454" d="M215 0v1004h25v-1004h-25z" />
<glyph unicode="&#x141;" horiz-adv-x="1075" d="M72 522v8q0 8 2 12t10 9l195 103v780h24v-768l455 241v-6q0 -6 -1.5 -10.5t-11.5 -9.5l-442 -238v-620h731v-23h-755v632z" />
<glyph unicode="&#x142;" horiz-adv-x="577" d="M61 711v6q0 8 2.5 11.5t10.5 8.5l202 102v636h25v-626l215 103v-6q0 -6 -1.5 -10.5t-10.5 -9.5l-203 -100v-826h-25v816z" />
<glyph unicode="&#x143;" horiz-adv-x="1548" d="M246 0v1434h8q9 0 14 -9l1015 -1381q-1 5 -1 11v11v1368h21v-1434h-7q-6 0 -11 7l-1020 1388q1 -6 1 -13v-12v-1370h-20zM744 1574l248 213q9 8 17 11t26 3h37l-297 -221q-9 -6 -19 -6h-12z" />
<glyph unicode="&#x144;" horiz-adv-x="1081" d="M180 0v1004h6q14 0 15 -17l3 -193q35 51 78.5 93t93.5 71.5t105.5 45.5t114.5 16q167 0 249.5 -99.5t82.5 -277.5v-643h-25v643q0 84 -18.5 150t-56.5 112t-96 70t-136 24q-118 0 -217 -63t-174 -173v-763h-25zM483 1186l168 241q9 14 17.5 18.5t25.5 4.5h27l-207 -256 q-7 -8 -16 -8h-15z" />
<glyph unicode="&#x152;" horiz-adv-x="2312" d="M154 717q0 169 44 304.5t122.5 231t188 146.5t241.5 51q114 0 210 -36t170.5 -104t126 -165.5t74.5 -221.5v511h836v-23h-813v-672h690v-22h-690v-694h815l-2 -23h-836v511q-24 -124 -75 -221t-125.5 -164.5t-171 -102.5t-209.5 -35q-131 0 -241 50t-188.5 144 t-122.5 229.5t-44 305.5zM178 717q0 -167 42.5 -298.5t119.5 -223t182.5 -139.5t231.5 -48q127 0 233 48t182 139.5t118 223t42 298.5t-42 299t-118 224t-182 141t-233 49q-126 0 -231.5 -49t-182.5 -141t-119.5 -224t-42.5 -299z" />
<glyph unicode="&#x153;" horiz-adv-x="1742" d="M102 502q0 117 27 212.5t79 163t128.5 105t175.5 37.5q86 0 153.5 -28t117.5 -81t80.5 -127.5t42.5 -167.5q10 91 41 165.5t80 128t116.5 82t150.5 28.5q72 0 134 -28.5t108 -85.5t72 -142t26 -197q0 -10 -10 -10h-703q-1 -8 -1 -17v-18q0 -125 27 -220.5t76.5 -160.5 t119.5 -99t155 -34q75 0 130 18.5t91.5 41t56.5 41t26 18.5q4 0 8 -4l4 -4q-15 -22 -46.5 -45t-73.5 -42.5t-92 -31.5t-104 -12q-82 0 -148.5 27.5t-116 81t-81 129.5t-44.5 174q-10 -95 -40.5 -171t-80.5 -130t-119 -82.5t-156 -28.5q-99 0 -175.5 36t-128.5 104t-79 162.5 t-27 211.5zM127 502q0 -111 24 -202t72 -155.5t120.5 -100.5t168.5 -36q95 0 167 36t120 100.5t72 155.5t24 202t-24 202.5t-72 157t-120 101.5t-167 36q-96 0 -168.5 -36t-120.5 -101.5t-72 -157t-24 -202.5zM921 575h693q0 105 -24.5 185t-67.5 133t-101 79.5t-125 26.5 q-84 0 -151 -30.5t-114.5 -86.5t-75.5 -134t-34 -173z" />
<glyph unicode="&#x15a;" horiz-adv-x="1095" d="M115 170l4 4q3 3 5 4.5t7 1.5q6 0 18 -12.5t32.5 -32.5t49 -42.5t69.5 -42.5t93.5 -33t120.5 -13q99 0 176.5 32t131.5 85.5t82 125t28 152.5q0 68 -21 117t-57 84.5t-83.5 60.5t-102 45t-110.5 37t-110.5 37.5t-102 46.5t-83.5 63.5t-57 89t-21 122.5q0 69 26 131.5 t75 111t121 77t165 28.5q104 0 185 -34t151 -107l-4 -6q-5 -6 -11 -7q-9 0 -28 21t-55.5 46t-94 46t-143.5 21q-88 0 -156 -27.5t-114 -72.5t-70 -104.5t-24 -123.5q0 -83 32 -138.5t84.5 -93t120 -63t137 -48.5t137 -48.5t120 -65t84.5 -97.5t32 -145q0 -88 -29.5 -164 t-86 -133t-138.5 -89.5t-186 -32.5q-73 0 -130 12.5t-105 36.5t-87.5 58.5t-76.5 78.5zM488 1575l248 213q9 8 17 11t26 3h37l-297 -221q-9 -6 -19 -6h-12z" />
<glyph unicode="&#x15b;" horiz-adv-x="874" d="M115 104l6 7q3 3 5 4.5t7 1.5q8 0 26.5 -17.5t52 -39t84 -39t124.5 -17.5t130.5 21.5t95.5 59t59 87t20 107.5t-25.5 96.5t-67 65t-95 44.5t-108.5 34.5t-108.5 34.5t-95 45.5t-67 67.5t-25.5 99q0 50 22.5 95.5t63.5 81t98 56.5t125 21q85 0 149.5 -23t125.5 -75l-4 -7 q-4 -6 -11 -6q-8 0 -23.5 14t-46 31t-76.5 31t-114 14q-63 0 -116 -19t-90.5 -51.5t-58.5 -74.5t-21 -88q0 -54 25.5 -90.5t67 -61.5t94.5 -42.5t108.5 -34.5t108.5 -36t94.5 -47.5t67.5 -70t26 -102.5t-22.5 -115.5t-64 -94.5t-102.5 -63.5t-139 -23.5q-54 0 -96.5 8.5 t-79 24t-67.5 37.5t-62 50zM432 1186l168 241q9 14 17.5 18.5t25.5 4.5h27l-207 -256q-7 -8 -16 -8h-15z" />
<glyph unicode="&#x160;" horiz-adv-x="1056" d="M115 170l4 4q3 3 5 4.5t7 1.5q6 0 18 -12.5t32.5 -32.5t49 -42.5t69.5 -42.5t93.5 -33t120.5 -13q99 0 176.5 32t131.5 85.5t82 125t28 152.5q0 68 -21 117t-57 84.5t-83.5 60.5t-102 45t-110.5 37t-110.5 37.5t-102 46.5t-83.5 63.5t-57 89t-21 122.5q0 69 26 131.5 t75 111t121 77t165 28.5q104 0 185 -34t151 -107l-4 -6q-5 -6 -11 -7q-9 0 -28 21t-55.5 46t-94 46t-143.5 21q-88 0 -156 -27.5t-114 -72.5t-70 -104.5t-24 -123.5q0 -83 32 -138.5t84.5 -93t120 -63t137 -48.5t137 -48.5t120 -65t84.5 -97.5t32 -145q0 -88 -29.5 -164 t-86 -133t-138.5 -89.5t-186 -32.5q-73 0 -130 12.5t-105 36.5t-87.5 58.5t-76.5 78.5zM338 1769h20q11 0 21 -8l201 -164l4 -5l4 5l200 164q9 8 21 8h20l-237 -194h-17z" />
<glyph unicode="&#x161;" horiz-adv-x="874" d="M115 104l6 7q3 3 5 4.5t7 1.5q8 0 26.5 -17.5t52 -39t84 -39t124.5 -17.5t130.5 21.5t95.5 59t59 87t20 107.5t-25.5 96.5t-67 65t-95 44.5t-108.5 34.5t-108.5 34.5t-95 45.5t-67 67.5t-25.5 99q0 50 22.5 95.5t63.5 81t98 56.5t125 21q85 0 149.5 -23t125.5 -75l-4 -7 q-4 -6 -11 -6q-8 0 -23.5 14t-46 31t-76.5 31t-114 14q-63 0 -116 -19t-90.5 -51.5t-58.5 -74.5t-21 -88q0 -54 25.5 -90.5t67 -61.5t94.5 -42.5t108.5 -34.5t108.5 -36t94.5 -47.5t67.5 -70t26 -102.5t-22.5 -115.5t-64 -94.5t-102.5 -63.5t-139 -23.5q-54 0 -96.5 8.5 t-79 24t-67.5 37.5t-62 50zM239 1434h19q8 0 16 -9l185 -200l6 -7l6 7l184 200q8 8 17 9h18l-217 -236h-16z" />
<glyph unicode="&#x178;" horiz-adv-x="1175" d="M41 1434h20q9 0 15 -9l482 -747q8 -13 16 -25t14 -24q5 12 13 24t16 25l483 747q5 8 14 9h21l-535 -825v-609h-25v609zM322 1704q0 24 16.5 40.5t40.5 16.5q22 0 39.5 -17t17.5 -40q0 -22 -18 -38.5t-39 -16.5q-24 0 -40.5 16.5t-16.5 38.5zM739 1704q0 24 17 40.5 t41 16.5q22 0 39.5 -17t17.5 -40q0 -22 -18 -38.5t-39 -16.5q-24 0 -41 16.5t-17 38.5z" />
<glyph unicode="&#x179;" horiz-adv-x="1312" d="M143 0v4q0 6 1.5 9.5t5.5 9.5l999 1388h-989v23h1024v-4q0 -9 -8 -21l-998 -1386h1004l-2 -23h-1037zM600 1575l248 213q9 8 17 11t26 3h37l-297 -221q-9 -6 -19 -6h-12z" />
<glyph unicode="&#x17a;" horiz-adv-x="909" d="M80 0v6q0 5 1.5 7t4.5 7l704 963h-675v21h708v-11q0 -3 -1.5 -5t-4.5 -7l-702 -961h678v-20h-713zM407 1186l168 241q9 14 17.5 18.5t25.5 4.5h27l-207 -256q-7 -8 -16 -8h-15z" />
<glyph unicode="&#x17b;" horiz-adv-x="1312" d="M143 0v4q0 6 1.5 9.5t5.5 9.5l999 1388h-989v23h1024v-4q0 -9 -8 -21l-998 -1386h1004l-2 -23h-1037zM618 1708q0 24 17 40.5t41 16.5q22 0 39.5 -16.5t17.5 -40.5q0 -22 -18 -38.5t-39 -16.5q-24 0 -41 16.5t-17 38.5z" />
<glyph unicode="&#x17c;" horiz-adv-x="909" d="M80 0v6q0 5 1.5 7t4.5 7l704 963h-675v21h708v-11q0 -3 -1.5 -5t-4.5 -7l-702 -961h678v-20h-713zM415 1393q0 24 17 40.5t41 16.5q22 0 39.5 -17t17.5 -40q0 -22 -18 -39t-39 -17q-24 0 -41 17t-17 39z" />
<glyph unicode="&#x17d;" horiz-adv-x="1312" d="M143 0v4q0 6 1.5 9.5t5.5 9.5l999 1388h-989v23h1024v-4q0 -9 -8 -21l-998 -1386h1004l-2 -23h-1037zM430 1769h21q5 0 10 -1.5t10 -6.5l201 -164l4 -5l4 5l201 164q5 5 10 6.5t10 1.5h21l-238 -194h-16z" />
<glyph unicode="&#x17e;" horiz-adv-x="909" d="M80 0v6q0 5 1.5 7t4.5 7l704 963h-675v21h708v-11q0 -3 -1.5 -5t-4.5 -7l-702 -961h678v-20h-713zM247 1434h19q8 0 16 -9l185 -200l6 -7l6 7l184 200q8 8 17 9h18l-217 -236h-16z" />
<glyph unicode="&#x192;" d="M131 -367q0 10 16 11q57 1 113.5 19.5t103 59t79.5 106.5t44 163l104 850l-231 4q-12 0 -12 8v8h246l27 217q11 96 42.5 166t81 115t114.5 66.5t142 21.5v-10q0 -10 -16 -11q-60 0 -116 -17.5t-101.5 -59t-78 -108t-44.5 -163.5l-28 -217h395v-20h-397l-103 -850 q-11 -96 -44.5 -166t-83.5 -115t-114.5 -66.5t-138.5 -21.5v10z" />
<glyph unicode="&#x2c6;" horiz-adv-x="573" d="M61 1198l218 236h16l217 -236h-18q-8 0 -17 8l-184 201l-6 6l-6 -6l-185 -201q-3 -3 -7 -5.5t-9 -2.5h-19z" />
<glyph unicode="&#x2c7;" horiz-adv-x="573" d="M61 1434h19q8 0 16 -9l185 -200l6 -7l6 7l184 200q8 8 17 9h18l-217 -236h-16z" />
<glyph unicode="&#x2c9;" horiz-adv-x="573" d="M20 1300v21h533v-21h-533z" />
<glyph unicode="&#x2d8;" horiz-adv-x="573" d="M72 1434h20q0 -42 10.5 -80.5t33.5 -68t59.5 -47t91.5 -17.5q53 0 90.5 17.5t60.5 47t33 68t10 80.5h21q0 -48 -12 -90t-38 -74.5t-67 -51t-98 -18.5t-98.5 18.5t-67.5 51t-37.5 74.5t-11.5 90z" />
<glyph unicode="&#x2d9;" horiz-adv-x="573" d="M229 1393q0 24 17 40.5t41 16.5q22 0 39.5 -17t17.5 -40q0 -22 -18 -39t-39 -17q-24 0 -41 17t-17 39z" />
<glyph unicode="&#x2da;" horiz-adv-x="573" d="M135 1321q0 32 12 58.5t32.5 46.5t48 31t59.5 11t59.5 -11t48 -31t32 -46.5t11.5 -58.5t-11.5 -58.5t-32 -46.5t-48.5 -31t-59 -11q-32 0 -59.5 11t-48 31t-32.5 46.5t-12 58.5zM158 1321q0 -28 9.5 -51.5t27 -41t41 -27t51.5 -9.5t51 9.5t40.5 27t27.5 41t10 51.5 t-10 51.5t-27.5 41t-41 27t-50.5 9.5q-28 0 -51.5 -9.5t-41 -27t-27 -41t-9.5 -51.5z" />
<glyph unicode="&#x2db;" horiz-adv-x="573" d="M145 -201q0 37 16 70t39.5 60.5t52 49t52.5 35.5l12 -14q-20 -11 -46 -30t-49 -44.5t-38.5 -57.5t-15.5 -69q0 -57 39.5 -89t97.5 -32q33 0 56 7.5t38.5 15.5t24.5 15.5t14 7.5q4 0 8 -5l7 -6q-27 -27 -67 -41t-83 -14q-68 0 -113 35.5t-45 105.5z" />
<glyph unicode="&#x2dc;" horiz-adv-x="573" d="M57 1253q0 28 8 53t23 43.5t37.5 30t52.5 11.5q34 0 62.5 -18.5t56 -41t54.5 -41t57 -18.5q51 0 75.5 33.5t26.5 83.5h16q0 -28 -7 -53t-21.5 -43.5t-37 -30t-52.5 -11.5q-33 0 -62 18.5t-56.5 41t-54.5 41t-57 18.5q-25 0 -43.5 -9t-31.5 -25t-19.5 -37.5t-7.5 -45.5 h-19z" />
<glyph unicode="&#x2dd;" horiz-adv-x="573" d="M154 1186l168 241q9 14 17 18.5t26 4.5h22l-203 -256q-5 -8 -16 -8h-14zM371 1186l188 241q11 14 18.5 18.5t24.5 4.5h27l-228 -256q-5 -8 -16 -8h-14z" />
<glyph unicode="&#x3c0;" horiz-adv-x="1146" d="M45 10l4 8q4 8 11 9q9 0 25.5 -7.5t47.5 -7.5q77 0 120.5 45.5t43.5 139.5v784h-217v8q0 5 3.5 10t12.5 5h1016v-7q0 -6 -4.5 -11t-13.5 -5h-207v-981h-25v981h-540v-784q0 -52 -14 -90.5t-38.5 -64.5t-59.5 -38t-77 -12q-30 0 -50 3.5t-38 14.5z" />
<glyph unicode="&#x2000;" horiz-adv-x="901" />
<glyph unicode="&#x2001;" horiz-adv-x="1802" />
<glyph unicode="&#x2002;" horiz-adv-x="901" />
<glyph unicode="&#x2003;" horiz-adv-x="1802" />
<glyph unicode="&#x2004;" horiz-adv-x="600" />
<glyph unicode="&#x2005;" horiz-adv-x="450" />
<glyph unicode="&#x2006;" horiz-adv-x="300" />
<glyph unicode="&#x2007;" horiz-adv-x="300" />
<glyph unicode="&#x2008;" horiz-adv-x="225" />
<glyph unicode="&#x2009;" horiz-adv-x="360" />
<glyph unicode="&#x200a;" horiz-adv-x="99" />
<glyph unicode="&#x2010;" horiz-adv-x="655" d="M102 592v20h451v-20h-451z" />
<glyph unicode="&#x2011;" horiz-adv-x="655" d="M102 592v20h451v-20h-451z" />
<glyph unicode="&#x2012;" horiz-adv-x="655" d="M102 592v20h451v-20h-451z" />
<glyph unicode="&#x2013;" horiz-adv-x="1081" d="M143 571v21h795v-21h-795z" />
<glyph unicode="&#x2014;" horiz-adv-x="1585" d="M143 571v21h1299v-21h-1299z" />
<glyph unicode="&#x2018;" horiz-adv-x="378" d="M106 1240q0 35 9 68.5t24.5 65.5t36 60.5t42.5 54.5l4 -4q2 -2 2 -5q0 -1 -2 -5q-45 -61 -68.5 -113.5t-23.5 -104.5q0 -33 7 -55.5t22 -50.5q4 -8 4 -10q0 -5 -6 -8l-21 -11q-16 30 -23 59t-7 59z" />
<glyph unicode="&#x2019;" horiz-adv-x="378" d="M123 1127q0 1 2 6q45 61 68.5 113t23.5 104q0 33 -7 55.5t-22 50.5q-4 8 -4 10q0 5 6 9l21 10q16 -30 23 -59t7 -59q0 -35 -9 -68.5t-24 -65.5t-35.5 -60.5t-43.5 -54.5l-4 4q-2 2 -2 5z" />
<glyph unicode="&#x201a;" horiz-adv-x="378" d="M123 -234q0 1 2 5q45 61 68.5 113.5t23.5 103.5q0 33 -7 56t-22 50q-4 8 -4 10q0 5 6 9l21 10q16 -30 23 -59t7 -59q0 -35 -9 -68.5t-24 -65.5t-35.5 -60.5t-43.5 -54.5l-4 4q-2 3 -2 6z" />
<glyph unicode="&#x201c;" horiz-adv-x="624" d="M106 1240q0 35 9 68.5t24.5 65.5t36 60.5t42.5 54.5l4 -4q2 -2 2 -5q0 -1 -2 -5q-45 -61 -68.5 -113.5t-23.5 -104.5q0 -33 7 -55.5t22 -50.5q4 -8 4 -10q0 -5 -6 -8l-21 -11q-16 30 -23 59t-7 59zM352 1240q0 35 9 68.5t24 65.5t35.5 60.5t43.5 54.5l4 -4q2 -2 2 -5 q0 -1 -2 -5q-45 -61 -68.5 -113.5t-23.5 -104.5q0 -33 7 -55.5t21 -50.5l5 -10q0 -5 -7 -8l-20 -11q-16 30 -23 59t-7 59z" />
<glyph unicode="&#x201d;" horiz-adv-x="624" d="M123 1127q0 1 2 6q45 61 68.5 113t23.5 104q0 33 -7 55.5t-22 50.5q-4 8 -4 10q0 5 6 9l21 10q16 -30 23 -59t7 -59q0 -35 -9 -68.5t-24 -65.5t-35.5 -60.5t-43.5 -54.5l-4 4q-2 2 -2 5zM369 1127q0 1 2 6q45 61 68.5 113t23.5 104q0 33 -7 55.5t-22 50.5q-4 8 -4 10 q0 5 6 9l21 10q16 -30 22.5 -59t6.5 -59q0 -35 -8.5 -68.5t-24 -65.5t-36 -60.5t-42.5 -54.5l-4 4q-2 2 -2 5z" />
<glyph unicode="&#x201e;" horiz-adv-x="624" d="M123 -234q0 1 2 5q45 61 68.5 113.5t23.5 103.5q0 33 -7 56t-22 50q-4 8 -4 10q0 5 6 9l21 10q16 -30 23 -59t7 -59q0 -35 -9 -68.5t-24 -65.5t-35.5 -60.5t-43.5 -54.5l-4 4q-2 3 -2 6zM369 -234q0 1 2 5q45 61 68.5 113.5t23.5 103.5q0 33 -7 56t-22 50q-4 8 -4 10 q0 5 6 9l21 10q16 -30 22.5 -59t6.5 -59q0 -35 -8.5 -68.5t-24 -65.5t-36 -60.5t-42.5 -54.5l-4 4q-2 3 -2 6z" />
<glyph unicode="&#x2020;" d="M201 944v8q0 5 4 10t10 5l365 -6l-5 489q3 2 6.5 3t8.5 1t8 -1t6 -3l-4 -489l365 6q6 0 10 -5t4 -10v-8h-379v-577l4 -738q-3 -2 -6 -3t-8 -1t-8 1t-7 3l5 738v577h-379z" />
<glyph unicode="&#x2021;" d="M201 127v8h379v809h-379v8q0 5 4 10t10 5l365 -6l-5 489q3 2 6.5 3t8.5 1t8 -1t6 -3l-4 -489l365 6q6 0 10 -5t4 -10v-8h-379v-809h379v-8q0 -5 -4 -9.5t-10 -4.5l-365 5l4 -489q-3 -2 -6 -3t-8 -1t-8 1t-7 3l5 489l-365 -5q-6 0 -10 4.5t-4 9.5z" />
<glyph unicode="&#x2022;" d="M362 612q0 48 18.5 90.5t50 74.5t73 50.5t88.5 18.5q48 0 90.5 -18.5t74 -50.5t50 -74.5t18.5 -90.5q0 -47 -18.5 -88.5t-50 -72.5t-74 -49.5t-90.5 -18.5q-47 0 -88.5 18.5t-73 49.5t-50 72.5t-18.5 88.5z" />
<glyph unicode="&#x2026;" horiz-adv-x="1341" d="M123 49q0 28 19 48t46 20q28 0 48 -20t20 -48t-20 -46.5t-48 -18.5t-46.5 18.5t-18.5 46.5zM604 49q0 28 19 48t47 20t47.5 -20t19.5 -48t-20 -46.5t-47 -18.5q-28 0 -47 18.5t-19 46.5zM1085 49q0 28 19 48t47 20t48 -20t20 -48t-20 -46.5t-48 -18.5t-47 18.5t-19 46.5z " />
<glyph unicode="&#x202f;" horiz-adv-x="360" />
<glyph unicode="&#x2030;" horiz-adv-x="2269" d="M102 1090q0 93 22.5 160.5t61.5 112t91.5 66t111.5 21.5q58 0 110.5 -21.5t91.5 -66t62 -112t23 -160.5q0 -92 -23 -160t-62 -112t-91.5 -65.5t-110.5 -21.5q-59 0 -111.5 21.5t-91.5 65.5t-61.5 112t-22.5 160zM125 1090q0 -89 21 -154t57.5 -106.5t84 -60.5t101.5 -19 q53 0 101.5 19t84.5 60.5t57 106t21 154.5q0 89 -21 153.5t-57 106.5t-84.5 62t-101.5 20q-54 0 -101.5 -20t-84 -62t-57.5 -106.5t-21 -153.5zM242 0l1011 1425q5 8 17 9h14l-1012 -1426q-5 -8 -16 -8h-14zM860 342q0 93 22.5 160.5t61.5 112t91 66t112 21.5 q58 0 110.5 -21.5t91.5 -66t62 -112t23 -160.5q0 -92 -23 -159.5t-62 -111.5t-91.5 -65.5t-110.5 -21.5q-59 0 -111.5 21.5t-91.5 65.5t-61.5 111.5t-22.5 159.5zM883 342q0 -89 21 -153.5t57 -106t84 -61t102 -19.5q53 0 101 19.5t84.5 61t57.5 106t21 153.5t-21 153.5 t-57.5 106.5t-84.5 62t-101 20q-54 0 -102 -20t-84 -62t-57 -106.5t-21 -153.5zM1593 342q0 93 22.5 160.5t61.5 112t91.5 66t111.5 21.5q58 0 110.5 -21.5t91.5 -66t62 -112t23 -160.5q0 -92 -23 -159.5t-62 -111.5t-91.5 -65.5t-110.5 -21.5q-59 0 -111.5 21.5t-91.5 65.5 t-61.5 111.5t-22.5 159.5zM1616 342q0 -89 21 -153.5t57.5 -106t84 -61t101.5 -19.5q53 0 101.5 19.5t84.5 61t57 106t21 153.5t-21 153.5t-57 106.5t-84.5 62t-101.5 20q-54 0 -101.5 -20t-84 -62t-57.5 -106.5t-21 -153.5z" />
<glyph unicode="&#x2039;" horiz-adv-x="622" d="M174 520v4l240 379l6 -4q6 -5 6 -12q0 -5 -4 -13l-209 -329q-14 -20 -18 -23q6 -4 18 -22l209 -330q4 -7 4 -12q0 -8 -6 -13l-6 -4z" />
<glyph unicode="&#x203a;" horiz-adv-x="622" d="M193 158q0 5 4 12l209 330q12 18 18 22q-4 2 -18 23l-209 329q-4 7 -4 13q0 7 6 12l6 4l239 -379v-4l-239 -379l-6 4q-6 5 -6 13z" />
<glyph unicode="&#x2044;" horiz-adv-x="405" d="M-219 0l803 1421q6 12 20 13h12l-802 -1422q-5 -8 -11 -10t-12 -2h-10z" />
<glyph unicode="&#x205f;" horiz-adv-x="450" />
<glyph unicode="&#x20ac;" d="M29 598v20h181q-3 47 -3 99q0 30 1 58.5t3 55.5h-182v21h184q13 141 56 251.5t112.5 187.5t162.5 117t208 40q63 0 116 -10.5t99 -31.5t87 -52.5t81 -73.5l-5 -6q-3 -4 -8 -4t-16 11.5t-30 29t-47.5 38t-67.5 38t-91.5 29t-117.5 11.5q-108 0 -196.5 -37t-154.5 -110.5 t-108 -181t-55 -246.5h663v-8q0 -6 -2.5 -9.5t-11.5 -3.5h-651q-2 -28 -3.5 -56.5t-1.5 -57.5q0 -51 3 -99h575v-8q0 -12 -14 -12h-558q12 -145 52.5 -256.5t106.5 -186t155 -113t197 -38.5q70 0 125 14t97 35t71.5 45.5t50.5 45.5t33.5 35t19.5 14q4 0 10 -7l4 -4 q-37 -44 -79 -80t-92.5 -62.5t-110.5 -41t-132 -14.5q-114 0 -207 39.5t-161.5 117.5t-111 193t-54.5 264h-182z" />
<glyph unicode="&#x2122;" horiz-adv-x="1449" d="M82 1413v21h469v-21h-221v-555h-25v555h-223zM705 858v576h14q5 0 7 -1.5t5 -5.5l264 -426l5 -10l6 10l256 426q3 6 10 7h14v-576h-20v524l1 17l-255 -426q-3 -6 -11 -6h-4q-7 0 -10 6l-262 425l2 -16v-524h-22z" />
<glyph unicode="&#x2126;" horiz-adv-x="1560" d="M123 12v13h500v267q-101 22 -191 67t-157 115.5t-106.5 165t-39.5 214.5q0 148 52.5 260t142.5 186.5t207.5 112t248.5 37.5q130 0 248.5 -37.5t208 -112t142.5 -186.5t53 -260q0 -120 -39.5 -214.5t-106.5 -165t-157 -116t-191 -66.5v-267h500v-13q0 -12 -13 -12h-510 v305q112 26 202.5 72t155 114t99.5 158.5t35 204.5q0 145 -51.5 253t-138.5 180t-200 107.5t-237 35.5t-237 -35.5t-199.5 -107.5t-138 -180t-51.5 -253q0 -114 34.5 -204.5t99 -158.5t155.5 -114t202 -72v-305h-510q-12 0 -12 12z" />
<glyph unicode="&#x2202;" d="M154 373q0 116 35 218.5t101 179.5t160 122t209 45q55 0 111 -16.5t104 -52.5t84 -94t53 -141q6 41 10 84t6 82t2.5 71.5t0.5 52.5q0 121 -20.5 215.5t-61.5 159.5t-102 99t-141 34q-55 0 -96.5 -11t-69.5 -23.5t-45.5 -23t-24.5 -10.5q-5 0 -8 6l-4 6q35 22 66 36.5 t60.5 24t59 13.5t62.5 4q86 0 151.5 -36t109.5 -104t66.5 -166.5t22.5 -225.5q0 -129 -16 -248.5t-47 -223t-78 -188.5t-109 -145.5t-139 -93.5t-168 -33q-78 0 -141.5 26.5t-108.5 75.5t-69.5 120.5t-24.5 160.5zM178 375q0 -86 23.5 -153.5t66 -115t102 -72t132.5 -24.5 q99 0 181.5 43t146 120t107 183t64.5 232q-9 59 -33 118t-65 106t-100.5 76.5t-138.5 29.5q-113 0 -202.5 -42t-152.5 -116t-97 -172.5t-34 -212.5z" />
<glyph unicode="&#x2206;" horiz-adv-x="1257" d="M20 0l598 1434h21l598 -1434h-1217zM55 20h1147l-557 1338q-5 11 -8.5 21t-7.5 21q-4 -11 -8 -21t-9 -21z" />
<glyph unicode="&#x220f;" horiz-adv-x="1392" d="M92 1411v23h1208v-23h-235v-1780h-25v1780h-688v-1780h-24v1780h-236z" />
<glyph unicode="&#x2211;" horiz-adv-x="1392" d="M92 -356q0 7 4 11l727 877l-726 877q-5 5 -5 12v13h1208v-23h-1170l726 -876v-5l-726 -876h1170v-23h-1208v13z" />
<glyph unicode="&#x2212;" d="M182 676v20h822v-20h-822z" />
<glyph unicode="&#x221a;" horiz-adv-x="1130" d="M35 743v7h303q9 0 13.5 -5t6.5 -10l263 -665q4 -11 7.5 -20.5t4.5 -17.5q2 8 4.5 17t5.5 21l549 1683q5 14 18 14h9l-576 -1767h-18l-290 731h-286q-14 0 -14 12z" />
<glyph unicode="&#x221e;" horiz-adv-x="1392" d="M90 604q0 69 22.5 122.5t60 91t87 57.5t104.5 20t101.5 -23t86.5 -61.5t76 -87.5t70 -100q34 51 70 100t76.5 87.5t87 61.5t101.5 23q54 0 104 -20t87.5 -57.5t60 -91t22.5 -122.5t-22.5 -122.5t-60 -91t-87.5 -57.5t-104 -20q-55 0 -101.5 23t-87 61t-76.5 87.5 t-70 100.5q-35 -51 -70.5 -100.5t-75.5 -87.5t-86.5 -61t-101.5 -23q-54 0 -104 20t-87.5 57.5t-60 91t-22.5 122.5zM117 604q0 -63 19 -113t52 -85t78 -53.5t98 -18.5q52 0 96 23t83 61t73.5 86.5t68.5 99.5q-34 51 -68.5 100t-73.5 86.5t-83 60.5t-96 23t-97.5 -18 t-78.5 -53.5t-52 -86t-19 -112.5zM711 604q34 -51 69 -99.5t73.5 -86.5t83 -61t96.5 -23t97.5 18.5t78.5 53.5t52 85t19 113q0 62 -19 112.5t-52 86t-78.5 53.5t-97.5 18t-96.5 -23t-83 -60.5t-73.5 -86.5t-69 -100z" />
<glyph unicode="&#x222b;" horiz-adv-x="761" d="M-147 -358l4 8q4 7 11 7q10 0 31 -7t62 -7q61 0 114.5 19t95 60t69.5 108t41 162l137 1116q10 89 40 153.5t73 106.5t97 62t111 20q40 0 63.5 -4.5t45.5 -15.5l-2 -6q-2 -5 -4 -6.5t-6 -1.5q-10 0 -32 7.5t-63 7.5q-55 0 -104.5 -19t-89.5 -58t-67 -100.5t-38 -145.5 l-137 -1116q-12 -99 -43 -169.5t-75.5 -114.5t-102 -64.5t-123.5 -20.5q-33 0 -61.5 4t-46.5 15z" />
<glyph unicode="&#x2248;" d="M223 522q27 40 71 64t99 24q53 0 105 -20t101.5 -43.5t98 -43.5t97.5 -20q48 0 89.5 22t65.5 56l15 -10q-27 -40 -72.5 -64t-97.5 -24t-103 20t-101 43.5t-99.5 43.5t-98.5 20q-51 0 -91 -22t-64 -56zM223 825q27 40 71 64t99 24q53 0 105 -20t101.5 -43.5t98 -43.5 t97.5 -20q48 0 89.5 22t65.5 56l15 -10q-27 -40 -72.5 -64t-97.5 -24t-103 20t-101 43.5t-99.5 43.5t-98.5 20q-51 0 -91 -22t-64 -56z" />
<glyph unicode="&#x2260;" d="M184 532v21h357l112 281h-469v20h478l120 297h23l-120 -297h319v-20h-327l-114 -281h441v-21h-449l-119 -294h-22l118 294h-348z" />
<glyph unicode="&#x2264;" d="M174 82v20h748v-20h-748zM174 680v12l748 381v-11q0 -12 -20 -22l-658 -333l-24 -12t-24 -9q12 -4 23.5 -9.5t24.5 -10.5l658 -334q19 -10 20 -22v-11z" />
<glyph unicode="&#x2265;" d="M266 82v20h748v-20h-748zM266 299v11q0 11 20 22l658 334q11 5 23 10.5t24 9.5q-12 3 -24 8.5t-23 12.5l-658 333q-19 9 -20 22v11l748 -381v-12z" />
<glyph unicode="&#x25ca;" d="M164 674l422 862h16l422 -862l-422 -862h-16zM190 674l390 -793q10 -22 14 -42q4 20 14 42l389 793l-389 792q-10 22 -14 42q-4 -20 -14 -42z" />
<glyph unicode="&#x2669;" horiz-adv-x="0" d="M-2 -369v1844h4v-1844h-4z" />
<glyph unicode="&#xe000;" horiz-adv-x="1004" d="M0 1005h1005v-1005h-1005v1005z" />
<glyph horiz-adv-x="573" d="M223 -389l47 287h11q16 0 16 -23q0 -11 -3.5 -30.5t-10.5 -50t-16.5 -71.5t-22.5 -98q-2 -6 -4 -10t-11 -4h-6z" />
<glyph horiz-adv-x="573" d="M45 1802h37q17 0 25.5 -3t17.5 -11l248 -213h-13q-9 0 -18 6z" />
<glyph horiz-adv-x="573" d="M20 1704q0 24 17 40.5t41 16.5q22 0 39.5 -17t17.5 -40q0 -22 -18 -38.5t-39 -16.5q-24 0 -41 16.5t-17 38.5zM438 1704q0 24 17 40.5t41 16.5q22 0 39.5 -17t17.5 -40q0 -22 -18 -38.5t-39 -16.5q-24 0 -41 16.5t-17 38.5z" />
<glyph horiz-adv-x="573" d="M102 1640v21h369v-21h-369z" />
<glyph horiz-adv-x="573" d="M209 1575l248 213q9 8 17 11t26 3h37l-297 -221q-9 -6 -19 -6h-12z" />
<glyph horiz-adv-x="573" d="M41 1575l238 194h16l237 -194h-20q-9 0 -20 8l-194 158q-7 5 -8.5 7.5t-2.5 3.5l-4 -4q-3 -3 -11 -9l-190 -156q-11 -8 -21 -8h-20z" />
<glyph horiz-adv-x="573" d="M41 1769h20q5 0 10.5 -1.5t10.5 -6.5l201 -164l4 -5l4 5l201 164q5 5 10 6.5t10 1.5h20l-237 -194h-16z" />
<glyph horiz-adv-x="573" d="M72 1769h20q0 -42 10.5 -75.5t33.5 -57.5t59.5 -37.5t91.5 -13.5q53 0 90.5 13.5t60.5 37.5t33 57.5t10 75.5h21q0 -95 -50.5 -149.5t-164.5 -54.5q-57 0 -98.5 14t-67.5 40.5t-37.5 64t-11.5 85.5z" />
<glyph horiz-adv-x="573" d="M229 1708q0 24 17 40.5t41 16.5q22 0 39.5 -16.5t17.5 -40.5q0 -22 -18 -38.5t-39 -16.5q-24 0 -41 16.5t-17 38.5z" />
<glyph horiz-adv-x="573" d="M135 1642q0 32 12 58.5t32.5 46.5t48 31.5t59.5 11.5t59.5 -11.5t48 -31.5t32 -46.5t11.5 -58.5t-11.5 -58t-32 -46t-48.5 -31.5t-59 -11.5q-32 0 -59.5 11.5t-48 31.5t-32.5 46t-12 58zM158 1642q0 -28 9.5 -51t27 -40.5t41 -27.5t51.5 -10t51 10t40.5 27.5t27.5 41 t10 50.5q0 28 -10 51.5t-27.5 41t-41 27.5t-50.5 10q-28 0 -51.5 -10t-41 -27.5t-27 -41t-9.5 -51.5z" />
<glyph horiz-adv-x="573" d="M57 1595q0 28 8 53t23 43.5t37.5 30t52.5 11.5q34 0 62.5 -18.5t56 -41t54.5 -41t57 -18.5q51 0 75.5 33.5t26.5 83.5h16q0 -28 -7 -53t-21.5 -43.5t-37 -30t-52.5 -11.5q-33 0 -62 18.5t-56.5 41t-54.5 41t-57 18.5q-25 0 -43.5 -9t-31.5 -25t-19.5 -37.5t-7.5 -45.5 h-19z" />
<glyph horiz-adv-x="573" d="M133 1575l166 205q10 13 19 17.5t26 4.5h21l-201 -219q-5 -8 -17 -8h-14zM391 1575l187 205q11 13 19 17.5t26 4.5h24l-225 -219q-8 -8 -16 -8h-15z" />
<glyph horiz-adv-x="573" d="M254 1190l47 287h10q16 0 17 -23q0 -11 -3.5 -30.5t-10.5 -50t-16.5 -71.5t-23.5 -98q-2 -6 -4 -10t-10 -4h-6z" />
</font>
</defs>
</svg>
